<?xml version="1.0" standalone="no"?>
<!DOCTYPE svg PUBLIC "-//W3C//DTD SVG 1.1//EN" "http://www.w3.org/Graphics/SVG/1.1/DTD/svg11.dtd" >
<svg xmlns="http://www.w3.org/2000/svg" xmlns:xlink="http://www.w3.org/1999/xlink" version="1.1">
<metadata>
Created by FontForge 20200306 at Thu Oct 17 17:37:15 2019
 By convertio
Copyright 2011 The Changa Project Authors (https://github.com/etunni/Changa)
</metadata>
<defs>
<font id="Changa-Bold" horiz-adv-x="0" >
  <font-face 
    font-family="Changa"
    font-weight="700"
    font-stretch="normal"
    units-per-em="1000"
    panose-1="0 0 0 0 0 0 0 0 0 0"
    ascent="800"
    descent="-200"
    x-height="500"
    cap-height="625"
    bbox="-182 -598 1875 1162.13"
    underline-thickness="50"
    underline-position="-125"
    unicode-range="U+000D-FEFC"
  />
<missing-glyph horiz-adv-x="700" 
d="M30 0v625h640v-625h-640zM120 100h460v425h-460v-425z" />
    <glyph glyph-name="f_f" unicode="ff" horiz-adv-x="704" 
d="M266 0h-176v499q3 66 19.5 104.5t52.5 55t96 16.5q23 0 49 -2.5t56 -7.5l-9 -109l-88 8v-564zM330 500v-115h-295v115h295zM618 0h-176v499q3 66 19.5 104.5t52.5 55t96 16.5q23 0 49 -2.5t56 -7.5l-9 -109l-88 8v-564zM682 500v-115h-295v115h295z" />
    <glyph glyph-name="f_f_i" unicode="ffi" horiz-adv-x="999" 
d="M266 0h-176v499q3 66 19.5 104.5t52.5 55t96 16.5q23 0 49 -2.5t56 -7.5l-9 -109l-88 8v-564zM330 500v-115h-295v115h295zM618 0h-176v499q3 66 19.5 104.5t52.5 55t96 16.5q23 0 49 -2.5t56 -7.5l-9 -109l-88 8v-564zM682 500v-115h-295v115h295zM764 479l176 23v-502
h-176v479zM852 553q-55 0 -75.5 19.5t-20.5 74.5q0 56 20.5 76t75.5 20q54 0 74 -20t20 -76q0 -55 -19 -74.5t-75 -19.5z" />
    <glyph glyph-name="f_f_l" unicode="ffl" horiz-adv-x="1004" 
d="M266 0h-176v499q3 66 19.5 104.5t52.5 55t96 16.5q23 0 49 -2.5t56 -7.5l-9 -109l-88 8v-564zM330 500v-115h-295v115h295zM618 0h-176v499q3 66 19.5 104.5t52.5 55t96 16.5q23 0 49 -2.5t56 -7.5l-9 -109l-88 8v-564zM682 500v-115h-295v115h295zM938 126
q14 -2 26 -3.5t23 -2.5l-9 -119q-27 -7 -52 -11t-48 -4q-59 0 -87.5 24.5t-28.5 76.5v563l176 15v-539z" />
    <glyph glyph-name="fi" unicode="fi" horiz-adv-x="647" 
d="M266 0h-176v499q3 66 19.5 104.5t52.5 55t96 16.5q23 0 49 -2.5t56 -7.5l-9 -109l-88 8v-564zM330 500v-115h-295v115h295zM412 479l176 23v-502h-176v479zM500 553q-55 0 -75.5 19.5t-20.5 74.5q0 56 20.5 76t75.5 20q54 0 74 -20t20 -76q0 -55 -19 -74.5t-75 -19.5z
" />
    <glyph glyph-name="fl" unicode="fl" horiz-adv-x="652" 
d="M266 0h-176v499q3 66 19.5 104.5t52.5 55t96 16.5q23 0 49 -2.5t56 -7.5l-9 -109l-88 8v-564zM330 500v-115h-295v115h295zM586 126q14 -2 26 -3.5t23 -2.5l-9 -119q-27 -7 -52 -11t-48 -4q-59 0 -87.5 24.5t-28.5 76.5v563l176 15v-539z" />
    <glyph glyph-name="uniFEFB" unicode="&#xfedf;&#xfe8e;" horiz-adv-x="665" arabic-form="isolated" 
d="M324 -15q-100 0 -156.5 18.5t-79.5 59t-23 106.5q0 51 11 89.5t40.5 66.5t84.5 47l234 80v178h141v-170q0 -46 -2.5 -71.5t-12 -38t-29.5 -18.5v-7q34 -38 47.5 -75t13.5 -83q0 -97 -62.5 -139.5t-206.5 -42.5zM215 143h173q31 0 43 10t12 25q0 11 -7 22.5t-22 21.5
l-55 45l-144 -49v-75zM253 355l-174 143l99 118l247 -203z" />
    <glyph glyph-name="uniFEFC" unicode="&#xfee0;&#xfe8e;" horiz-adv-x="701" arabic-form="final" 
d="M170 107l-38 438h141l39 -438h-142zM20 0v158h681v-158h-681zM483 107v523h141v-523h-141zM701 0v158q10 0 15 -21.5t5 -57.5q0 -37 -5 -58t-15 -21z" />
    <glyph glyph-name="uniFEF7" unicode="&#xfedf;&#xfe84;" horiz-adv-x="665" arabic-form="isolated" 
d="M324 -15q-100 0 -156.5 18.5t-79.5 59t-23 106.5q0 51 11 89.5t40.5 66.5t84.5 47l234 80v178h141v-170q0 -46 -2.5 -71.5t-12 -38t-29.5 -18.5v-7q34 -38 47.5 -75t13.5 -83q0 -97 -62.5 -139.5t-206.5 -42.5zM215 143h173q31 0 43 10t12 25q0 11 -7 22.5t-22 21.5
l-55 45l-144 -49v-75zM253 355l-174 143l99 118l247 -203zM-9 639v65l38 11q-4 11 -5.5 24t-1.5 30q0 53 21.5 83.5t61.5 45t92 18.5v-76q-25 -3 -45.5 -7.5t-42.5 -13.5l-1 -53q0 -16 8.5 -20.5t28.5 0.5l80 22v-67z" />
    <glyph glyph-name="uniFEF8" unicode="&#xfee0;&#xfe84;" horiz-adv-x="701" arabic-form="final" 
d="M170 107l-38 438h141l39 -438h-142zM20 0v158h681v-158h-681zM483 107v523h141v-523h-141zM701 0v158q10 0 15 -21.5t5 -57.5q0 -37 -5 -58t-15 -21zM86 651v65l38 11q-4 11 -5.5 24t-1.5 30q0 53 21.5 83.5t61.5 45t92 18.5v-76q-25 -3 -45.5 -7.5t-42.5 -13.5l-1 -53
q0 -16 8.5 -20.5t28.5 0.5l80 22v-67z" />
    <glyph glyph-name="uniFEF9" unicode="&#xfedf;&#xfe88;" horiz-adv-x="665" arabic-form="isolated" 
d="M324 -15q-100 0 -156.5 18.5t-79.5 59t-23 106.5q0 51 11 89.5t40.5 66.5t84.5 47l234 80v178h141v-170q0 -46 -2.5 -71.5t-12 -38t-29.5 -18.5v-7q34 -38 47.5 -75t13.5 -83q0 -97 -62.5 -139.5t-206.5 -42.5zM215 143h173q31 0 43 10t12 25q0 11 -7 22.5t-22 21.5
l-55 45l-144 -49v-75zM253 355l-174 143l99 118l247 -203zM36 -373v65l38 11q-4 11 -5.5 24t-1.5 30q0 53 21.5 83.5t61.5 45t92 18.5v-76q-25 -3 -45.5 -7.5t-42.5 -13.5l-1 -53q0 -16 8.5 -20.5t28.5 0.5l80 22v-67z" />
    <glyph glyph-name="uniFEFA" unicode="&#xfee0;&#xfe88;" horiz-adv-x="701" arabic-form="final" 
d="M170 107l-38 438h141l39 -438h-142zM20 0v158h681v-158h-681zM483 107v523h141v-523h-141zM701 0v158q10 0 15 -21.5t5 -57.5q0 -37 -5 -58t-15 -21zM136 -373v65l38 11q-4 11 -5.5 24t-1.5 30q0 53 21.5 83.5t61.5 45t92 18.5v-76q-25 -3 -45.5 -7.5t-42.5 -13.5l-1 -53
q0 -16 8.5 -20.5t28.5 0.5l80 22v-67z" />
    <glyph glyph-name="uniFEF5" unicode="&#xfedf;&#xfe82;" horiz-adv-x="665" arabic-form="isolated" 
d="M324 -15q-100 0 -156.5 18.5t-79.5 59t-23 106.5q0 51 11 89.5t40.5 66.5t84.5 47l234 80v178h141v-170q0 -46 -2.5 -71.5t-12 -38t-29.5 -18.5v-7q34 -38 47.5 -75t13.5 -83q0 -97 -62.5 -139.5t-206.5 -42.5zM215 143h173q31 0 43 10t12 25q0 11 -7 22.5t-22 21.5
l-55 45l-144 -49v-75zM253 355l-174 143l99 118l247 -203zM119 668q-16 0 -29 8.5t-33 32.5l-68 -31l-23 40q43 33 67 49.5t38 22.5t24 6q11 0 19.5 -3.5t18.5 -12.5t24 -26l67 31l23 -40q-40 -33 -65 -49.5t-39 -22t-24 -5.5z" />
    <glyph glyph-name="uniFEF6" unicode="&#xfee0;&#xfe82;" horiz-adv-x="701" arabic-form="final" 
d="M170 107l-38 438h141l39 -438h-142zM20 0v158h681v-158h-681zM483 107v523h141v-523h-141zM701 0v158q10 0 15 -21.5t5 -57.5q0 -37 -5 -58t-15 -21zM214 680q-16 0 -29 8.5t-33 32.5l-68 -31l-23 40q43 33 67 49.5t38 22.5t24 6q11 0 19.5 -3.5t18.5 -12.5t24 -26l67 31
l23 -40q-40 -33 -65 -49.5t-39 -22t-24 -5.5z" />
    <glyph glyph-name="lam_alefWaslaar" unicode="&#xfedf;&#xfb51;" horiz-adv-x="665" 
d="M324 -15q-100 0 -156.5 18.5t-79.5 59t-23 106.5q0 51 11 89.5t40.5 66.5t84.5 47l234 80v178h141v-170q0 -46 -2.5 -71.5t-12 -38t-29.5 -18.5v-7q34 -38 47.5 -75t13.5 -83q0 -97 -62.5 -139.5t-206.5 -42.5zM215 143h173q31 0 43 10t12 25q0 11 -7 22.5t-22 21.5
l-55 45l-144 -49v-75zM253 355l-174 143l99 118l247 -203zM-44 703q0 86 44 133t127 47q73 0 107.5 -21t34.5 -65v-94h-105v102q-7 3 -16 4.5t-21 1.5q-33 0 -49 -27t-16 -81h-106zM-74 653v66h343v-66h-343z" />
    <glyph glyph-name="lam_alefWaslaar.fina" unicode="&#xfee0;&#xfb51;" horiz-adv-x="701" 
d="M170 107l-38 438h141l39 -438h-142zM20 0v158h681v-158h-681zM483 107v523h141v-523h-141zM701 0v158q10 0 15 -21.5t5 -57.5q0 -37 -5 -58t-15 -21zM51 715q0 86 44 133t127 47q73 0 107.5 -21t34.5 -65v-94h-105v102q-7 3 -16 4.5t-21 1.5q-33 0 -49 -27t-16 -81h-106z
M21 665v66h343v-66h-343z" />
    <glyph glyph-name="uniFC6A" unicode="&#xfe92;&#xfeae;" horiz-adv-x="661" arabic-form="final" 
d="M72 -279l-52 126q39 18 60 37.5t29 51.5t8 85v449h140v-449q0 -80 -18.5 -136.5t-59 -96t-107.5 -67.5zM257 312v158h186v-158h-186zM443 0v470h140v-312h78v-158h-218zM661 0v158q9 0 14.5 -21.5t5.5 -57.5q0 -37 -5.5 -58t-14.5 -21zM513 -236q-14 0 -32.5 13.5t-32 32
t-13.5 32.5q0 15 13.5 33t31.5 31.5t33 13.5t33 -13.5t31.5 -31.5t13.5 -33q0 -14 -14 -32.5t-32 -32t-32 -13.5z" />
    <glyph glyph-name="uniFC6B" unicode="&#xfe92;&#xfeb0;" horiz-adv-x="661" arabic-form="final" 
d="M72 -279l-52 126q39 18 60 37.5t29 51.5t8 85v449h140v-449q0 -80 -18.5 -136.5t-59 -96t-107.5 -67.5zM257 312v158h186v-158h-186zM443 0v470h140v-312h78v-158h-218zM661 0v158q9 0 14.5 -21.5t5.5 -57.5q0 -37 -5.5 -58t-14.5 -21zM513 -236q-14 0 -32.5 13.5t-32 32
t-13.5 32.5q0 15 13.5 33t31.5 31.5t33 13.5t33 -13.5t31.5 -31.5t13.5 -33q0 -14 -14 -32.5t-32 -32t-32 -13.5zM186 586q-14 0 -32.5 13.5t-32 32t-13.5 32.5q0 15 13.5 33t31.5 31.5t33 13.5t33 -13.5t31.5 -31.5t13.5 -33q0 -14 -14 -32.5t-32 -32t-32 -13.5z" />
    <glyph glyph-name="uniFC6D" unicode="&#xfe92;&#xfee6;" horiz-adv-x="1005" arabic-form="final" 
d="M787 0v470h141v-312h77v-158h-218zM601 312v158h186v-158h-186zM327 -240q-80 0 -131.5 11t-80.5 38t-41 74t-12 120q0 42 3.5 83.5t11.5 82t18 78.5l134 -22q-13 -51 -19.5 -99.5t-6.5 -95.5q0 -35 2 -61.5t8 -49.5h143q53 0 78.5 10.5t25.5 42.5v498h141v-472
q0 -70 -10.5 -116.5t-39.5 -73t-83 -37.5t-141 -11zM332 587q-14 0 -32 13.5t-32 32t-14 32.5q0 15 13.5 33t32 31.5t32.5 13.5q16 0 33.5 -13.5t31 -31.5t13.5 -33q0 -14 -14 -32.5t-31.5 -32t-32.5 -13.5zM1005 0v158q10 0 15 -21.5t5 -57.5q0 -37 -5 -58t-15 -21z
M858 -236q-14 0 -32.5 13.5t-32 32t-13.5 32.5q0 15 13.5 33t31.5 31.5t33 13.5t33 -13.5t31.5 -31.5t13.5 -33q0 -14 -14 -32.5t-32 -32t-32 -13.5z" />
    <glyph glyph-name="uniFC6E" unicode="&#xfe92;&#xfef0;" horiz-adv-x="1171" arabic-form="final" 
d="M953 0v470h141v-312h77v-158h-218zM62 -52q0 35 3.5 71t11.5 71t18 67l138 -23q-13 -41 -21.5 -80t-8.5 -78q0 -32 2 -57t8 -47h281q63 0 99 4.5t51.5 16t15.5 32.5v124l-132 13q-69 8 -105 30t-49.5 63.5t-13.5 107.5q0 58 9 98.5t33 64t67.5 34t112.5 10.5h371v-158
h-444v-94l133 -13q63 -7 97.5 -27.5t48 -57t13.5 -93.5v-78q0 -67 -17 -112t-58.5 -72t-115 -39t-183.5 -12q-107 0 -178 11t-111.5 37t-58 72t-17.5 114zM1171 0v158q10 0 15 -21.5t5 -57.5q0 -37 -5 -58t-15 -21zM1024 -216q-14 0 -32.5 13.5t-32 32t-13.5 32.5
q0 15 13.5 33t31.5 31.5t33 13.5t33 -13.5t31.5 -31.5t13.5 -33q0 -14 -14 -32.5t-32 -32t-32 -13.5z" />
    <glyph glyph-name="uniFC6F" unicode="&#xfe92;&#xfef2;" horiz-adv-x="1171" arabic-form="final" 
d="M953 0v470h141v-312h77v-158h-218zM62 -52q0 35 3.5 71t11.5 71t18 67l138 -23q-13 -41 -21.5 -80t-8.5 -78q0 -32 2 -57t8 -47h281q63 0 99 4.5t51.5 16t15.5 32.5v124l-132 13q-69 8 -105 30t-49.5 63.5t-13.5 107.5q0 58 9 98.5t33 64t67.5 34t112.5 10.5h371v-158
h-444v-94l133 -13q63 -7 97.5 -27.5t48 -57t13.5 -93.5v-78q0 -67 -17 -112t-58.5 -72t-115 -39t-183.5 -12q-107 0 -178 11t-111.5 37t-58 72t-17.5 114zM1171 0v158q10 0 15 -21.5t5 -57.5q0 -37 -5 -58t-15 -21zM1024 -216q-14 0 -32.5 13.5t-32 32t-13.5 32.5
q0 15 13.5 33t31.5 31.5t33 13.5t33 -13.5t31.5 -31.5t13.5 -33q0 -14 -14 -32.5t-32 -32t-32 -13.5zM345 -486q-14 0 -32.5 13.5t-32 32t-13.5 32.5q0 15 13.5 33t31.5 31.5t33 13.5t33 -13.5t31.5 -31.5t13.5 -33q0 -14 -14 -32.5t-32 -32t-32 -13.5zM525 -486
q-14 0 -32.5 13.5t-32 32t-13.5 32.5q0 15 13.5 33t31.5 31.5t33 13.5t33 -13.5t31.5 -31.5t13.5 -33q0 -14 -14 -32.5t-32 -32t-32 -13.5z" />
    <glyph glyph-name="beh_yehHamzaabovear.fina" unicode="&#xfe92;&#xfe8a;" horiz-adv-x="1171" 
d="M953 0v470h141v-312h77v-158h-218zM62 -52q0 35 3.5 71t11.5 71t18 67l138 -23q-13 -41 -21.5 -80t-8.5 -78q0 -32 2 -57t8 -47h281q63 0 99 4.5t51.5 16t15.5 32.5v124l-132 13q-69 8 -105 30t-49.5 63.5t-13.5 107.5q0 58 9 98.5t33 64t67.5 34t112.5 10.5h371v-158
h-444v-94l133 -13q63 -7 97.5 -27.5t48 -57t13.5 -93.5v-78q0 -67 -17 -112t-58.5 -72t-115 -39t-183.5 -12q-107 0 -178 11t-111.5 37t-58 72t-17.5 114zM1171 0v158q10 0 15 -21.5t5 -57.5q0 -37 -5 -58t-15 -21zM1024 -216q-14 0 -32.5 13.5t-32 32t-13.5 32.5
q0 15 13.5 33t31.5 31.5t33 13.5t33 -13.5t31.5 -31.5t13.5 -33q0 -14 -14 -32.5t-32 -32t-32 -13.5zM4 266v65l38 11q-4 11 -5.5 24t-1.5 30q0 53 21.5 83.5t61.5 45t92 18.5v-76q-25 -3 -45.5 -7.5t-42.5 -13.5l-1 -53q0 -16 8.5 -20.5t28.5 0.5l80 22v-67z" />
    <glyph glyph-name="peh_rehar.fina" unicode="&#xfb59;&#xfeae;" horiz-adv-x="661" 
d="M72 -279l-52 126q39 18 60 37.5t29 51.5t8 85v449h140v-449q0 -80 -18.5 -136.5t-59 -96t-107.5 -67.5zM257 312v158h186v-158h-186zM443 0v470h140v-312h78v-158h-218zM661 0v158q9 0 14.5 -21.5t5.5 -57.5q0 -37 -5.5 -58t-14.5 -21zM513 -413q-14 0 -32.5 13.5t-32 32
t-13.5 32.5q0 15 13.5 33t31.5 31.5t33 13.5t33 -13.5t31.5 -31.5t13.5 -33q0 -14 -14 -32.5t-32 -32t-32 -13.5zM423 -236q-14 0 -32.5 13.5t-32 32t-13.5 32.5q0 15 13.5 33t31.5 31.5t33 13.5t33 -13.5t31.5 -31.5t13.5 -33q0 -14 -14 -32.5t-32 -32t-32 -13.5zM603 -236
q-14 0 -32.5 13.5t-32 32t-13.5 32.5q0 15 13.5 33t31.5 31.5t33 13.5t33 -13.5t31.5 -31.5t13.5 -33q0 -14 -14 -32.5t-32 -32t-32 -13.5z" />
    <glyph glyph-name="peh_zainar.fina" unicode="&#xfb59;&#xfeb0;" horiz-adv-x="661" 
d="M72 -279l-52 126q39 18 60 37.5t29 51.5t8 85v449h140v-449q0 -80 -18.5 -136.5t-59 -96t-107.5 -67.5zM257 312v158h186v-158h-186zM443 0v470h140v-312h78v-158h-218zM661 0v158q9 0 14.5 -21.5t5.5 -57.5q0 -37 -5.5 -58t-14.5 -21zM513 -413q-14 0 -32.5 13.5t-32 32
t-13.5 32.5q0 15 13.5 33t31.5 31.5t33 13.5t33 -13.5t31.5 -31.5t13.5 -33q0 -14 -14 -32.5t-32 -32t-32 -13.5zM423 -236q-14 0 -32.5 13.5t-32 32t-13.5 32.5q0 15 13.5 33t31.5 31.5t33 13.5t33 -13.5t31.5 -31.5t13.5 -33q0 -14 -14 -32.5t-32 -32t-32 -13.5zM603 -236
q-14 0 -32.5 13.5t-32 32t-13.5 32.5q0 15 13.5 33t31.5 31.5t33 13.5t33 -13.5t31.5 -31.5t13.5 -33q0 -14 -14 -32.5t-32 -32t-32 -13.5zM186 586q-14 0 -32.5 13.5t-32 32t-13.5 32.5q0 15 13.5 33t31.5 31.5t33 13.5t33 -13.5t31.5 -31.5t13.5 -33q0 -14 -14 -32.5
t-32 -32t-32 -13.5z" />
    <glyph glyph-name="peh_noonar.fina" unicode="&#xfb59;&#xfee6;" horiz-adv-x="1005" 
d="M787 0v470h141v-312h77v-158h-218zM601 312v158h186v-158h-186zM327 -240q-80 0 -131.5 11t-80.5 38t-41 74t-12 120q0 42 3.5 83.5t11.5 82t18 78.5l134 -22q-13 -51 -19.5 -99.5t-6.5 -95.5q0 -35 2 -61.5t8 -49.5h143q53 0 78.5 10.5t25.5 42.5v498h141v-472
q0 -70 -10.5 -116.5t-39.5 -73t-83 -37.5t-141 -11zM332 587q-14 0 -32 13.5t-32 32t-14 32.5q0 15 13.5 33t32 31.5t32.5 13.5q16 0 33.5 -13.5t31 -31.5t13.5 -33q0 -14 -14 -32.5t-31.5 -32t-32.5 -13.5zM1005 0v158q10 0 15 -21.5t5 -57.5q0 -37 -5 -58t-15 -21z
M858 -413q-14 0 -32.5 13.5t-32 32t-13.5 32.5q0 15 13.5 33t31.5 31.5t33 13.5t33 -13.5t31.5 -31.5t13.5 -33q0 -14 -14 -32.5t-32 -32t-32 -13.5zM768 -236q-14 0 -32.5 13.5t-32 32t-13.5 32.5q0 15 13.5 33t31.5 31.5t33 13.5t33 -13.5t31.5 -31.5t13.5 -33
q0 -14 -14 -32.5t-32 -32t-32 -13.5zM948 -236q-14 0 -32.5 13.5t-32 32t-13.5 32.5q0 15 13.5 33t31.5 31.5t33 13.5t33 -13.5t31.5 -31.5t13.5 -33q0 -14 -14 -32.5t-32 -32t-32 -13.5z" />
    <glyph glyph-name="peh_alefMaksuraar.fina" unicode="&#xfb59;&#xfef0;" horiz-adv-x="1171" 
d="M953 0v470h141v-312h77v-158h-218zM62 -52q0 35 3.5 71t11.5 71t18 67l138 -23q-13 -41 -21.5 -80t-8.5 -78q0 -32 2 -57t8 -47h281q63 0 99 4.5t51.5 16t15.5 32.5v124l-132 13q-69 8 -105 30t-49.5 63.5t-13.5 107.5q0 58 9 98.5t33 64t67.5 34t112.5 10.5h371v-158
h-444v-94l133 -13q63 -7 97.5 -27.5t48 -57t13.5 -93.5v-78q0 -67 -17 -112t-58.5 -72t-115 -39t-183.5 -12q-107 0 -178 11t-111.5 37t-58 72t-17.5 114zM1171 0v158q10 0 15 -21.5t5 -57.5q0 -37 -5 -58t-15 -21zM1024 -393q-14 0 -32.5 13.5t-32 32t-13.5 32.5
q0 15 13.5 33t31.5 31.5t33 13.5t33 -13.5t31.5 -31.5t13.5 -33q0 -14 -14 -32.5t-32 -32t-32 -13.5zM934 -216q-14 0 -32.5 13.5t-32 32t-13.5 32.5q0 15 13.5 33t31.5 31.5t33 13.5t33 -13.5t31.5 -31.5t13.5 -33q0 -14 -14 -32.5t-32 -32t-32 -13.5zM1114 -216
q-14 0 -32.5 13.5t-32 32t-13.5 32.5q0 15 13.5 33t31.5 31.5t33 13.5t33 -13.5t31.5 -31.5t13.5 -33q0 -14 -14 -32.5t-32 -32t-32 -13.5z" />
    <glyph glyph-name="peh_yehar.fina" unicode="&#xfb59;&#xfef2;" horiz-adv-x="1171" 
d="M953 0v470h141v-312h77v-158h-218zM62 -52q0 35 3.5 71t11.5 71t18 67l138 -23q-13 -41 -21.5 -80t-8.5 -78q0 -32 2 -57t8 -47h281q63 0 99 4.5t51.5 16t15.5 32.5v124l-132 13q-69 8 -105 30t-49.5 63.5t-13.5 107.5q0 58 9 98.5t33 64t67.5 34t112.5 10.5h371v-158
h-444v-94l133 -13q63 -7 97.5 -27.5t48 -57t13.5 -93.5v-78q0 -67 -17 -112t-58.5 -72t-115 -39t-183.5 -12q-107 0 -178 11t-111.5 37t-58 72t-17.5 114zM1171 0v158q10 0 15 -21.5t5 -57.5q0 -37 -5 -58t-15 -21zM1024 -393q-14 0 -32.5 13.5t-32 32t-13.5 32.5
q0 15 13.5 33t31.5 31.5t33 13.5t33 -13.5t31.5 -31.5t13.5 -33q0 -14 -14 -32.5t-32 -32t-32 -13.5zM934 -216q-14 0 -32.5 13.5t-32 32t-13.5 32.5q0 15 13.5 33t31.5 31.5t33 13.5t33 -13.5t31.5 -31.5t13.5 -33q0 -14 -14 -32.5t-32 -32t-32 -13.5zM1114 -216
q-14 0 -32.5 13.5t-32 32t-13.5 32.5q0 15 13.5 33t31.5 31.5t33 13.5t33 -13.5t31.5 -31.5t13.5 -33q0 -14 -14 -32.5t-32 -32t-32 -13.5zM345 -486q-14 0 -32.5 13.5t-32 32t-13.5 32.5q0 15 13.5 33t31.5 31.5t33 13.5t33 -13.5t31.5 -31.5t13.5 -33q0 -14 -14 -32.5
t-32 -32t-32 -13.5zM525 -486q-14 0 -32.5 13.5t-32 32t-13.5 32.5q0 15 13.5 33t31.5 31.5t33 13.5t33 -13.5t31.5 -31.5t13.5 -33q0 -14 -14 -32.5t-32 -32t-32 -13.5z" />
    <glyph glyph-name="peh_yehHamzaabovear.fina" unicode="&#xfb59;&#xfe8a;" horiz-adv-x="1171" 
d="M953 0v470h141v-312h77v-158h-218zM62 -52q0 35 3.5 71t11.5 71t18 67l138 -23q-13 -41 -21.5 -80t-8.5 -78q0 -32 2 -57t8 -47h281q63 0 99 4.5t51.5 16t15.5 32.5v124l-132 13q-69 8 -105 30t-49.5 63.5t-13.5 107.5q0 58 9 98.5t33 64t67.5 34t112.5 10.5h371v-158
h-444v-94l133 -13q63 -7 97.5 -27.5t48 -57t13.5 -93.5v-78q0 -67 -17 -112t-58.5 -72t-115 -39t-183.5 -12q-107 0 -178 11t-111.5 37t-58 72t-17.5 114zM1171 0v158q10 0 15 -21.5t5 -57.5q0 -37 -5 -58t-15 -21zM1024 -393q-14 0 -32.5 13.5t-32 32t-13.5 32.5
q0 15 13.5 33t31.5 31.5t33 13.5t33 -13.5t31.5 -31.5t13.5 -33q0 -14 -14 -32.5t-32 -32t-32 -13.5zM934 -216q-14 0 -32.5 13.5t-32 32t-13.5 32.5q0 15 13.5 33t31.5 31.5t33 13.5t33 -13.5t31.5 -31.5t13.5 -33q0 -14 -14 -32.5t-32 -32t-32 -13.5zM1114 -216
q-14 0 -32.5 13.5t-32 32t-13.5 32.5q0 15 13.5 33t31.5 31.5t33 13.5t33 -13.5t31.5 -31.5t13.5 -33q0 -14 -14 -32.5t-32 -32t-32 -13.5zM0 266v65l38 11q-4 11 -5.5 24t-1.5 30q0 53 21.5 83.5t61.5 45t92 18.5v-76q-25 -3 -45.5 -7.5t-42.5 -13.5l-1 -53
q0 -16 8.5 -20.5t28.5 0.5l80 22v-67z" />
    <glyph glyph-name="uniFC70" unicode="&#xfe98;&#xfeae;" horiz-adv-x="661" arabic-form="final" 
d="M72 -279l-52 126q39 18 60 37.5t29 51.5t8 85v449h140v-449q0 -80 -18.5 -136.5t-59 -96t-107.5 -67.5zM257 312v158h186v-158h-186zM443 0v470h140v-312h78v-158h-218zM661 0v158q9 0 14.5 -21.5t5.5 -57.5q0 -37 -5.5 -58t-14.5 -21zM423 586q-14 0 -32.5 13.5t-32 32
t-13.5 32.5q0 15 13.5 33t31.5 31.5t33 13.5t33 -13.5t31.5 -31.5t13.5 -33q0 -14 -14 -32.5t-32 -32t-32 -13.5zM603 586q-14 0 -32.5 13.5t-32 32t-13.5 32.5q0 15 13.5 33t31.5 31.5t33 13.5t33 -13.5t31.5 -31.5t13.5 -33q0 -14 -14 -32.5t-32 -32t-32 -13.5z" />
    <glyph glyph-name="uniFC71" unicode="&#xfe98;&#xfeb0;" horiz-adv-x="661" arabic-form="final" 
d="M72 -279l-52 126q39 18 60 37.5t29 51.5t8 85v449h140v-449q0 -80 -18.5 -136.5t-59 -96t-107.5 -67.5zM257 312v158h186v-158h-186zM443 0v470h140v-312h78v-158h-218zM661 0v158q9 0 14.5 -21.5t5.5 -57.5q0 -37 -5.5 -58t-14.5 -21zM423 586q-14 0 -32.5 13.5t-32 32
t-13.5 32.5q0 15 13.5 33t31.5 31.5t33 13.5t33 -13.5t31.5 -31.5t13.5 -33q0 -14 -14 -32.5t-32 -32t-32 -13.5zM603 586q-14 0 -32.5 13.5t-32 32t-13.5 32.5q0 15 13.5 33t31.5 31.5t33 13.5t33 -13.5t31.5 -31.5t13.5 -33q0 -14 -14 -32.5t-32 -32t-32 -13.5zM186 586
q-14 0 -32.5 13.5t-32 32t-13.5 32.5q0 15 13.5 33t31.5 31.5t33 13.5t33 -13.5t31.5 -31.5t13.5 -33q0 -14 -14 -32.5t-32 -32t-32 -13.5z" />
    <glyph glyph-name="uniFC73" unicode="&#xfe98;&#xfee6;" horiz-adv-x="1005" arabic-form="final" 
d="M787 0v470h141v-312h77v-158h-218zM601 312v158h186v-158h-186zM327 -240q-80 0 -131.5 11t-80.5 38t-41 74t-12 120q0 42 3.5 83.5t11.5 82t18 78.5l134 -22q-13 -51 -19.5 -99.5t-6.5 -95.5q0 -35 2 -61.5t8 -49.5h143q53 0 78.5 10.5t25.5 42.5v498h141v-472
q0 -70 -10.5 -116.5t-39.5 -73t-83 -37.5t-141 -11zM332 587q-14 0 -32 13.5t-32 32t-14 32.5q0 15 13.5 33t32 31.5t32.5 13.5q16 0 33.5 -13.5t31 -31.5t13.5 -33q0 -14 -14 -32.5t-31.5 -32t-32.5 -13.5zM1005 0v158q10 0 15 -21.5t5 -57.5q0 -37 -5 -58t-15 -21z
M768 586q-14 0 -32.5 13.5t-32 32t-13.5 32.5q0 15 13.5 33t31.5 31.5t33 13.5t33 -13.5t31.5 -31.5t13.5 -33q0 -14 -14 -32.5t-32 -32t-32 -13.5zM948 586q-14 0 -32.5 13.5t-32 32t-13.5 32.5q0 15 13.5 33t31.5 31.5t33 13.5t33 -13.5t31.5 -31.5t13.5 -33
q0 -14 -14 -32.5t-32 -32t-32 -13.5z" />
    <glyph glyph-name="uniFC74" unicode="&#xfe98;&#xfef0;" horiz-adv-x="1171" arabic-form="final" 
d="M953 0v470h141v-312h77v-158h-218zM62 -52q0 35 3.5 71t11.5 71t18 67l138 -23q-13 -41 -21.5 -80t-8.5 -78q0 -32 2 -57t8 -47h281q63 0 99 4.5t51.5 16t15.5 32.5v124l-132 13q-69 8 -105 30t-49.5 63.5t-13.5 107.5q0 58 9 98.5t33 64t67.5 34t112.5 10.5h371v-158
h-444v-94l133 -13q63 -7 97.5 -27.5t48 -57t13.5 -93.5v-78q0 -67 -17 -112t-58.5 -72t-115 -39t-183.5 -12q-107 0 -178 11t-111.5 37t-58 72t-17.5 114zM1171 0v158q10 0 15 -21.5t5 -57.5q0 -37 -5 -58t-15 -21zM934 586q-14 0 -32.5 13.5t-32 32t-13.5 32.5
q0 15 13.5 33t31.5 31.5t33 13.5t33 -13.5t31.5 -31.5t13.5 -33q0 -14 -14 -32.5t-32 -32t-32 -13.5zM1114 586q-14 0 -32.5 13.5t-32 32t-13.5 32.5q0 15 13.5 33t31.5 31.5t33 13.5t33 -13.5t31.5 -31.5t13.5 -33q0 -14 -14 -32.5t-32 -32t-32 -13.5z" />
    <glyph glyph-name="uniFC75" unicode="&#xfe98;&#xfef2;" horiz-adv-x="1171" arabic-form="final" 
d="M953 0v470h141v-312h77v-158h-218zM62 -52q0 35 3.5 71t11.5 71t18 67l138 -23q-13 -41 -21.5 -80t-8.5 -78q0 -32 2 -57t8 -47h281q63 0 99 4.5t51.5 16t15.5 32.5v124l-132 13q-69 8 -105 30t-49.5 63.5t-13.5 107.5q0 58 9 98.5t33 64t67.5 34t112.5 10.5h371v-158
h-444v-94l133 -13q63 -7 97.5 -27.5t48 -57t13.5 -93.5v-78q0 -67 -17 -112t-58.5 -72t-115 -39t-183.5 -12q-107 0 -178 11t-111.5 37t-58 72t-17.5 114zM1171 0v158q10 0 15 -21.5t5 -57.5q0 -37 -5 -58t-15 -21zM934 586q-14 0 -32.5 13.5t-32 32t-13.5 32.5
q0 15 13.5 33t31.5 31.5t33 13.5t33 -13.5t31.5 -31.5t13.5 -33q0 -14 -14 -32.5t-32 -32t-32 -13.5zM1114 586q-14 0 -32.5 13.5t-32 32t-13.5 32.5q0 15 13.5 33t31.5 31.5t33 13.5t33 -13.5t31.5 -31.5t13.5 -33q0 -14 -14 -32.5t-32 -32t-32 -13.5zM345 -486
q-14 0 -32.5 13.5t-32 32t-13.5 32.5q0 15 13.5 33t31.5 31.5t33 13.5t33 -13.5t31.5 -31.5t13.5 -33q0 -14 -14 -32.5t-32 -32t-32 -13.5zM525 -486q-14 0 -32.5 13.5t-32 32t-13.5 32.5q0 15 13.5 33t31.5 31.5t33 13.5t33 -13.5t31.5 -31.5t13.5 -33q0 -14 -14 -32.5
t-32 -32t-32 -13.5z" />
    <glyph glyph-name="teh_yehHamzaabovear.fina" unicode="&#xfe98;&#xfe8a;" horiz-adv-x="1171" 
d="M953 0v470h141v-312h77v-158h-218zM62 -52q0 35 3.5 71t11.5 71t18 67l138 -23q-13 -41 -21.5 -80t-8.5 -78q0 -32 2 -57t8 -47h281q63 0 99 4.5t51.5 16t15.5 32.5v124l-132 13q-69 8 -105 30t-49.5 63.5t-13.5 107.5q0 58 9 98.5t33 64t67.5 34t112.5 10.5h371v-158
h-444v-94l133 -13q63 -7 97.5 -27.5t48 -57t13.5 -93.5v-78q0 -67 -17 -112t-58.5 -72t-115 -39t-183.5 -12q-107 0 -178 11t-111.5 37t-58 72t-17.5 114zM1171 0v158q10 0 15 -21.5t5 -57.5q0 -37 -5 -58t-15 -21zM934 586q-14 0 -32.5 13.5t-32 32t-13.5 32.5
q0 15 13.5 33t31.5 31.5t33 13.5t33 -13.5t31.5 -31.5t13.5 -33q0 -14 -14 -32.5t-32 -32t-32 -13.5zM1114 586q-14 0 -32.5 13.5t-32 32t-13.5 32.5q0 15 13.5 33t31.5 31.5t33 13.5t33 -13.5t31.5 -31.5t13.5 -33q0 -14 -14 -32.5t-32 -32t-32 -13.5zM4 266v65l38 11
q-4 11 -5.5 24t-1.5 30q0 53 21.5 83.5t61.5 45t92 18.5v-76q-25 -3 -45.5 -7.5t-42.5 -13.5l-1 -53q0 -16 8.5 -20.5t28.5 0.5l80 22v-67z" />
    <glyph glyph-name="uniFC76" unicode="&#xfe9c;&#xfeae;" horiz-adv-x="661" arabic-form="final" 
d="M72 -279l-52 126q39 18 60 37.5t29 51.5t8 85v449h140v-449q0 -80 -18.5 -136.5t-59 -96t-107.5 -67.5zM257 312v158h186v-158h-186zM443 0v470h140v-312h78v-158h-218zM661 0v158q9 0 14.5 -21.5t5.5 -57.5q0 -37 -5.5 -58t-14.5 -21zM423 586q-14 0 -32.5 13.5t-32 32
t-13.5 32.5q0 15 13.5 33t31.5 31.5t33 13.5t33 -13.5t31.5 -31.5t13.5 -33q0 -14 -14 -32.5t-32 -32t-32 -13.5zM603 586q-14 0 -32.5 13.5t-32 32t-13.5 32.5q0 15 13.5 33t31.5 31.5t33 13.5t33 -13.5t31.5 -31.5t13.5 -33q0 -14 -14 -32.5t-32 -32t-32 -13.5zM513 778
q-14 0 -32.5 13.5t-32 32t-13.5 32.5q0 15 13.5 33t31.5 31.5t33 13.5t33 -13.5t31.5 -31.5t13.5 -33q0 -14 -14 -32.5t-32 -32t-32 -13.5z" />
    <glyph glyph-name="uniFC77" unicode="&#xfe9c;&#xfeb0;" horiz-adv-x="661" arabic-form="final" 
d="M72 -279l-52 126q39 18 60 37.5t29 51.5t8 85v449h140v-449q0 -80 -18.5 -136.5t-59 -96t-107.5 -67.5zM257 312v158h186v-158h-186zM443 0v470h140v-312h78v-158h-218zM661 0v158q9 0 14.5 -21.5t5.5 -57.5q0 -37 -5.5 -58t-14.5 -21zM423 586q-14 0 -32.5 13.5t-32 32
t-13.5 32.5q0 15 13.5 33t31.5 31.5t33 13.5t33 -13.5t31.5 -31.5t13.5 -33q0 -14 -14 -32.5t-32 -32t-32 -13.5zM603 586q-14 0 -32.5 13.5t-32 32t-13.5 32.5q0 15 13.5 33t31.5 31.5t33 13.5t33 -13.5t31.5 -31.5t13.5 -33q0 -14 -14 -32.5t-32 -32t-32 -13.5zM513 778
q-14 0 -32.5 13.5t-32 32t-13.5 32.5q0 15 13.5 33t31.5 31.5t33 13.5t33 -13.5t31.5 -31.5t13.5 -33q0 -14 -14 -32.5t-32 -32t-32 -13.5zM185 586q-14 0 -32.5 13.5t-32 32t-13.5 32.5q0 15 13.5 33t31.5 31.5t33 13.5t33 -13.5t31.5 -31.5t13.5 -33q0 -14 -14 -32.5
t-32 -32t-32 -13.5z" />
    <glyph glyph-name="uniFC79" unicode="&#xfe9c;&#xfee6;" horiz-adv-x="1005" arabic-form="final" 
d="M787 0v470h141v-312h77v-158h-218zM601 312v158h186v-158h-186zM327 -240q-80 0 -131.5 11t-80.5 38t-41 74t-12 120q0 42 3.5 83.5t11.5 82t18 78.5l134 -22q-13 -51 -19.5 -99.5t-6.5 -95.5q0 -35 2 -61.5t8 -49.5h143q53 0 78.5 10.5t25.5 42.5v498h141v-472
q0 -70 -10.5 -116.5t-39.5 -73t-83 -37.5t-141 -11zM332 587q-14 0 -32 13.5t-32 32t-14 32.5q0 15 13.5 33t32 31.5t32.5 13.5q16 0 33.5 -13.5t31 -31.5t13.5 -33q0 -14 -14 -32.5t-31.5 -32t-32.5 -13.5zM1005 0v158q10 0 15 -21.5t5 -57.5q0 -37 -5 -58t-15 -21z
M768 586q-14 0 -32.5 13.5t-32 32t-13.5 32.5q0 15 13.5 33t31.5 31.5t33 13.5t33 -13.5t31.5 -31.5t13.5 -33q0 -14 -14 -32.5t-32 -32t-32 -13.5zM948 586q-14 0 -32.5 13.5t-32 32t-13.5 32.5q0 15 13.5 33t31.5 31.5t33 13.5t33 -13.5t31.5 -31.5t13.5 -33
q0 -14 -14 -32.5t-32 -32t-32 -13.5zM858 778q-14 0 -32.5 13.5t-32 32t-13.5 32.5q0 15 13.5 33t31.5 31.5t33 13.5t33 -13.5t31.5 -31.5t13.5 -33q0 -14 -14 -32.5t-32 -32t-32 -13.5z" />
    <glyph glyph-name="uniFC7A" unicode="&#xfe9c;&#xfef0;" horiz-adv-x="1171" arabic-form="final" 
d="M953 0v470h141v-312h77v-158h-218zM62 -52q0 35 3.5 71t11.5 71t18 67l138 -23q-13 -41 -21.5 -80t-8.5 -78q0 -32 2 -57t8 -47h281q63 0 99 4.5t51.5 16t15.5 32.5v124l-132 13q-69 8 -105 30t-49.5 63.5t-13.5 107.5q0 58 9 98.5t33 64t67.5 34t112.5 10.5h371v-158
h-444v-94l133 -13q63 -7 97.5 -27.5t48 -57t13.5 -93.5v-78q0 -67 -17 -112t-58.5 -72t-115 -39t-183.5 -12q-107 0 -178 11t-111.5 37t-58 72t-17.5 114zM1171 0v158q10 0 15 -21.5t5 -57.5q0 -37 -5 -58t-15 -21zM934 586q-14 0 -32.5 13.5t-32 32t-13.5 32.5
q0 15 13.5 33t31.5 31.5t33 13.5t33 -13.5t31.5 -31.5t13.5 -33q0 -14 -14 -32.5t-32 -32t-32 -13.5zM1114 586q-14 0 -32.5 13.5t-32 32t-13.5 32.5q0 15 13.5 33t31.5 31.5t33 13.5t33 -13.5t31.5 -31.5t13.5 -33q0 -14 -14 -32.5t-32 -32t-32 -13.5zM1024 778
q-14 0 -32.5 13.5t-32 32t-13.5 32.5q0 15 13.5 33t31.5 31.5t33 13.5t33 -13.5t31.5 -31.5t13.5 -33q0 -14 -14 -32.5t-32 -32t-32 -13.5z" />
    <glyph glyph-name="uniFC7B" unicode="&#xfe9c;&#xfef2;" horiz-adv-x="1171" arabic-form="final" 
d="M953 0v470h141v-312h77v-158h-218zM62 -52q0 35 3.5 71t11.5 71t18 67l138 -23q-13 -41 -21.5 -80t-8.5 -78q0 -32 2 -57t8 -47h281q63 0 99 4.5t51.5 16t15.5 32.5v124l-132 13q-69 8 -105 30t-49.5 63.5t-13.5 107.5q0 58 9 98.5t33 64t67.5 34t112.5 10.5h371v-158
h-444v-94l133 -13q63 -7 97.5 -27.5t48 -57t13.5 -93.5v-78q0 -67 -17 -112t-58.5 -72t-115 -39t-183.5 -12q-107 0 -178 11t-111.5 37t-58 72t-17.5 114zM1171 0v158q10 0 15 -21.5t5 -57.5q0 -37 -5 -58t-15 -21zM934 586q-14 0 -32.5 13.5t-32 32t-13.5 32.5
q0 15 13.5 33t31.5 31.5t33 13.5t33 -13.5t31.5 -31.5t13.5 -33q0 -14 -14 -32.5t-32 -32t-32 -13.5zM1114 586q-14 0 -32.5 13.5t-32 32t-13.5 32.5q0 15 13.5 33t31.5 31.5t33 13.5t33 -13.5t31.5 -31.5t13.5 -33q0 -14 -14 -32.5t-32 -32t-32 -13.5zM1024 778
q-14 0 -32.5 13.5t-32 32t-13.5 32.5q0 15 13.5 33t31.5 31.5t33 13.5t33 -13.5t31.5 -31.5t13.5 -33q0 -14 -14 -32.5t-32 -32t-32 -13.5zM345 -486q-14 0 -32.5 13.5t-32 32t-13.5 32.5q0 15 13.5 33t31.5 31.5t33 13.5t33 -13.5t31.5 -31.5t13.5 -33q0 -14 -14 -32.5
t-32 -32t-32 -13.5zM525 -486q-14 0 -32.5 13.5t-32 32t-13.5 32.5q0 15 13.5 33t31.5 31.5t33 13.5t33 -13.5t31.5 -31.5t13.5 -33q0 -14 -14 -32.5t-32 -32t-32 -13.5z" />
    <glyph glyph-name="theh_yehHamzaabovear.fina" unicode="&#xfe9c;&#xfe8a;" horiz-adv-x="1171" 
d="M953 0v470h141v-312h77v-158h-218zM62 -52q0 35 3.5 71t11.5 71t18 67l138 -23q-13 -41 -21.5 -80t-8.5 -78q0 -32 2 -57t8 -47h281q63 0 99 4.5t51.5 16t15.5 32.5v124l-132 13q-69 8 -105 30t-49.5 63.5t-13.5 107.5q0 58 9 98.5t33 64t67.5 34t112.5 10.5h371v-158
h-444v-94l133 -13q63 -7 97.5 -27.5t48 -57t13.5 -93.5v-78q0 -67 -17 -112t-58.5 -72t-115 -39t-183.5 -12q-107 0 -178 11t-111.5 37t-58 72t-17.5 114zM1171 0v158q10 0 15 -21.5t5 -57.5q0 -37 -5 -58t-15 -21zM934 586q-14 0 -32.5 13.5t-32 32t-13.5 32.5
q0 15 13.5 33t31.5 31.5t33 13.5t33 -13.5t31.5 -31.5t13.5 -33q0 -14 -14 -32.5t-32 -32t-32 -13.5zM1114 586q-14 0 -32.5 13.5t-32 32t-13.5 32.5q0 15 13.5 33t31.5 31.5t33 13.5t33 -13.5t31.5 -31.5t13.5 -33q0 -14 -14 -32.5t-32 -32t-32 -13.5zM1024 778
q-14 0 -32.5 13.5t-32 32t-13.5 32.5q0 15 13.5 33t31.5 31.5t33 13.5t33 -13.5t31.5 -31.5t13.5 -33q0 -14 -14 -32.5t-32 -32t-32 -13.5zM4 266v65l38 11q-4 11 -5.5 24t-1.5 30q0 53 21.5 83.5t61.5 45t92 18.5v-76q-25 -3 -45.5 -7.5t-42.5 -13.5l-1 -53
q0 -16 8.5 -20.5t28.5 0.5l80 22v-67z" />
    <glyph glyph-name="uniFD0E" unicode="&#xfeb3;&#xfeae;" horiz-adv-x="1338" arabic-form="isolated" 
d="M1022 0q-73 0 -119.5 11t-72.5 37.5t-35.5 74t-9.5 118.5v139h140v-169q0 -32 19.5 -42.5t55.5 -10.5h117q5 20 7 44t2 55q0 47 -7.5 94t-20.5 97l140 21q11 -30 17 -64t9 -69.5t3 -69.5q0 -105 -26.5 -162.5t-81 -80.5t-137.5 -23zM72 -279l-52 126q39 18 60 37.5
t29 51.5t8 85v449h140v-449q0 -80 -18.5 -136.5t-59 -96t-107.5 -67.5zM257 312v158h186v-158h-186zM443 0v470h140v-470h-140zM583 0v158h127q36 0 55.5 10.5t19.5 42.5v169h140v-139q0 -71 -10 -118.5t-37 -74t-78.5 -37.5t-134.5 -11h-82z" />
    <glyph glyph-name="uniFD2A" unicode="&#xfeb4;&#xfeae;" horiz-adv-x="1344" arabic-form="final" 
d="M1022 0l160 158h162v-158h-322zM1022 0q-73 0 -119.5 11t-72.5 37.5t-35.5 74t-9.5 118.5v139h140v-169q0 -32 19.5 -42.5t55.5 -10.5h117q5 20 7 44t2 55q0 47 -7.5 94t-20.5 97l140 21q11 -30 17 -64t9 -69.5t3 -69.5q0 -105 -26.5 -162.5t-81 -80.5t-137.5 -23z
M72 -279l-52 126q39 18 60 37.5t29 51.5t8 85v449h140v-449q0 -80 -18.5 -136.5t-59 -96t-107.5 -67.5zM257 312v158h186v-158h-186zM443 0v470h140v-470h-140zM583 0v158h127q36 0 55.5 10.5t19.5 42.5v169h140v-139q0 -71 -10 -118.5t-37 -74t-78.5 -37.5t-134.5 -11h-82z
M1344 0v158q10 0 15 -21.5t5 -57.5q0 -37 -5 -58t-15 -21z" />
    <glyph glyph-name="uniFCFB" unicode="&#xfeb3;&#xfef0;" horiz-adv-x="1849" arabic-form="isolated" 
d="M427 -286q-107 0 -178 11t-111.5 37t-58 72t-17.5 114q0 35 3.5 71t11.5 71t18 67l138 -23q-13 -41 -21.5 -80t-8.5 -78q0 -32 2 -57t8 -47h281q63 0 99 4.5t51.5 16t15.5 32.5v124l-132 13q-69 8 -105 30t-49.5 63.5t-13.5 107.5q0 58 9 98.5t33 64t67.5 34t112.5 10.5
h371v-158h-444v-94l133 -13q63 -7 97.5 -27.5t48 -57t13.5 -93.5v-78q0 -67 -17 -112t-58.5 -72t-115 -39t-183.5 -12zM953 0v470h141v-470h-141zM1094 0v158h126q37 0 56 10.5t19 42.5v169h141v-139q0 -71 -10.5 -118.5t-37.5 -74t-78.5 -37.5t-133.5 -11h-82zM1532 0
q-73 0 -119.5 11t-72 37.5t-35.5 74t-10 118.5v139h141v-169q0 -32 19 -42.5t56 -10.5h116q5 20 7.5 44t2.5 55q0 47 -8 94t-21 97l140 21q11 -30 17.5 -64t9.5 -69.5t3 -69.5q0 -105 -26.5 -162.5t-81 -80.5t-138.5 -23z" />
    <glyph glyph-name="uniFD17" unicode="&#xfeb4;&#xfef0;" horiz-adv-x="1855" arabic-form="final" 
d="M1532 0l161 158h162v-158h-323zM427 -286q-107 0 -178 11t-111.5 37t-58 72t-17.5 114q0 35 3.5 71t11.5 71t18 67l138 -23q-13 -41 -21.5 -80t-8.5 -78q0 -32 2 -57t8 -47h281q63 0 99 4.5t51.5 16t15.5 32.5v124l-132 13q-69 8 -105 30t-49.5 63.5t-13.5 107.5
q0 58 9 98.5t33 64t67.5 34t112.5 10.5h371v-158h-444v-94l133 -13q63 -7 97.5 -27.5t48 -57t13.5 -93.5v-78q0 -67 -17 -112t-58.5 -72t-115 -39t-183.5 -12zM953 0v470h141v-470h-141zM1094 0v158h126q37 0 56 10.5t19 42.5v169h141v-139q0 -71 -10.5 -118.5t-37.5 -74
t-78.5 -37.5t-133.5 -11h-82zM1532 0q-73 0 -119.5 11t-72 37.5t-35.5 74t-10 118.5v139h141v-169q0 -32 19 -42.5t56 -10.5h116q5 20 7.5 44t2.5 55q0 47 -8 94t-21 97l140 21q11 -30 17.5 -64t9.5 -69.5t3 -69.5q0 -105 -26.5 -162.5t-81 -80.5t-138.5 -23zM1855 0v158
q10 0 15 -21.5t5 -57.5q0 -37 -5 -58t-15 -21z" />
    <glyph glyph-name="uniFCFC" unicode="&#xfeb3;&#xfef2;" horiz-adv-x="1849" arabic-form="isolated" 
d="M427 -286q-107 0 -178 11t-111.5 37t-58 72t-17.5 114q0 35 3.5 71t11.5 71t18 67l138 -23q-13 -41 -21.5 -80t-8.5 -78q0 -32 2 -57t8 -47h281q63 0 99 4.5t51.5 16t15.5 32.5v124l-132 13q-69 8 -105 30t-49.5 63.5t-13.5 107.5q0 58 9 98.5t33 64t67.5 34t112.5 10.5
h371v-158h-444v-94l133 -13q63 -7 97.5 -27.5t48 -57t13.5 -93.5v-78q0 -67 -17 -112t-58.5 -72t-115 -39t-183.5 -12zM953 0v470h141v-470h-141zM1094 0v158h126q37 0 56 10.5t19 42.5v169h141v-139q0 -71 -10.5 -118.5t-37.5 -74t-78.5 -37.5t-133.5 -11h-82zM1532 0
q-73 0 -119.5 11t-72 37.5t-35.5 74t-10 118.5v139h141v-169q0 -32 19 -42.5t56 -10.5h116q5 20 7.5 44t2.5 55q0 47 -8 94t-21 97l140 21q11 -30 17.5 -64t9.5 -69.5t3 -69.5q0 -105 -26.5 -162.5t-81 -80.5t-138.5 -23zM345 -486q-14 0 -32.5 13.5t-32 32t-13.5 32.5
q0 15 13.5 33t31.5 31.5t33 13.5t33 -13.5t31.5 -31.5t13.5 -33q0 -14 -14 -32.5t-32 -32t-32 -13.5zM525 -486q-14 0 -32.5 13.5t-32 32t-13.5 32.5q0 15 13.5 33t31.5 31.5t33 13.5t33 -13.5t31.5 -31.5t13.5 -33q0 -14 -14 -32.5t-32 -32t-32 -13.5z" />
    <glyph glyph-name="uniFD18" unicode="&#xfeb4;&#xfef2;" horiz-adv-x="1855" arabic-form="final" 
d="M1532 0l161 158h162v-158h-323zM427 -286q-107 0 -178 11t-111.5 37t-58 72t-17.5 114q0 35 3.5 71t11.5 71t18 67l138 -23q-13 -41 -21.5 -80t-8.5 -78q0 -32 2 -57t8 -47h281q63 0 99 4.5t51.5 16t15.5 32.5v124l-132 13q-69 8 -105 30t-49.5 63.5t-13.5 107.5
q0 58 9 98.5t33 64t67.5 34t112.5 10.5h371v-158h-444v-94l133 -13q63 -7 97.5 -27.5t48 -57t13.5 -93.5v-78q0 -67 -17 -112t-58.5 -72t-115 -39t-183.5 -12zM953 0v470h141v-470h-141zM1094 0v158h126q37 0 56 10.5t19 42.5v169h141v-139q0 -71 -10.5 -118.5t-37.5 -74
t-78.5 -37.5t-133.5 -11h-82zM1532 0q-73 0 -119.5 11t-72 37.5t-35.5 74t-10 118.5v139h141v-169q0 -32 19 -42.5t56 -10.5h116q5 20 7.5 44t2.5 55q0 47 -8 94t-21 97l140 21q11 -30 17.5 -64t9.5 -69.5t3 -69.5q0 -105 -26.5 -162.5t-81 -80.5t-138.5 -23zM1855 0v158
q10 0 15 -21.5t5 -57.5q0 -37 -5 -58t-15 -21zM345 -486q-14 0 -32.5 13.5t-32 32t-13.5 32.5q0 15 13.5 33t31.5 31.5t33 13.5t33 -13.5t31.5 -31.5t13.5 -33q0 -14 -14 -32.5t-32 -32t-32 -13.5zM525 -486q-14 0 -32.5 13.5t-32 32t-13.5 32.5q0 15 13.5 33t31.5 31.5
t33 13.5t33 -13.5t31.5 -31.5t13.5 -33q0 -14 -14 -32.5t-32 -32t-32 -13.5z" />
    <glyph glyph-name="seen_zainar" unicode="&#xfeb3;&#xfeb0;" horiz-adv-x="1338" 
d="M1022 0q-73 0 -119.5 11t-72.5 37.5t-35.5 74t-9.5 118.5v139h140v-169q0 -32 19.5 -42.5t55.5 -10.5h117q5 20 7 44t2 55q0 47 -7.5 94t-20.5 97l140 21q11 -30 17 -64t9 -69.5t3 -69.5q0 -105 -26.5 -162.5t-81 -80.5t-137.5 -23zM72 -279l-52 126q39 18 60 37.5
t29 51.5t8 85v449h140v-449q0 -80 -18.5 -136.5t-59 -96t-107.5 -67.5zM257 312v158h186v-158h-186zM443 0v470h140v-470h-140zM583 0v158h127q36 0 55.5 10.5t19.5 42.5v169h140v-139q0 -71 -10 -118.5t-37 -74t-78.5 -37.5t-134.5 -11h-82zM186 586q-14 0 -32.5 13.5
t-32 32t-13.5 32.5q0 15 13.5 33t31.5 31.5t33 13.5t33 -13.5t31.5 -31.5t13.5 -33q0 -14 -14 -32.5t-32 -32t-32 -13.5z" />
    <glyph glyph-name="seen_zainar.fina" unicode="&#xfeb4;&#xfeb0;" horiz-adv-x="1344" 
d="M1022 0l160 158h162v-158h-322zM1022 0q-73 0 -119.5 11t-72.5 37.5t-35.5 74t-9.5 118.5v139h140v-169q0 -32 19.5 -42.5t55.5 -10.5h117q5 20 7 44t2 55q0 47 -7.5 94t-20.5 97l140 21q11 -30 17 -64t9 -69.5t3 -69.5q0 -105 -26.5 -162.5t-81 -80.5t-137.5 -23z
M72 -279l-52 126q39 18 60 37.5t29 51.5t8 85v449h140v-449q0 -80 -18.5 -136.5t-59 -96t-107.5 -67.5zM257 312v158h186v-158h-186zM443 0v470h140v-470h-140zM583 0v158h127q36 0 55.5 10.5t19.5 42.5v169h140v-139q0 -71 -10 -118.5t-37 -74t-78.5 -37.5t-134.5 -11h-82z
M1344 0v158q10 0 15 -21.5t5 -57.5q0 -37 -5 -58t-15 -21zM186 586q-14 0 -32.5 13.5t-32 32t-13.5 32.5q0 15 13.5 33t31.5 31.5t33 13.5t33 -13.5t31.5 -31.5t13.5 -33q0 -14 -14 -32.5t-32 -32t-32 -13.5z" />
    <glyph glyph-name="seen_yehHamzaabovear" unicode="&#xfeb3;&#xfe8a;" horiz-adv-x="1849" 
d="M427 -286q-107 0 -178 11t-111.5 37t-58 72t-17.5 114q0 35 3.5 71t11.5 71t18 67l138 -23q-13 -41 -21.5 -80t-8.5 -78q0 -32 2 -57t8 -47h281q63 0 99 4.5t51.5 16t15.5 32.5v124l-132 13q-69 8 -105 30t-49.5 63.5t-13.5 107.5q0 58 9 98.5t33 64t67.5 34t112.5 10.5
h371v-158h-444v-94l133 -13q63 -7 97.5 -27.5t48 -57t13.5 -93.5v-78q0 -67 -17 -112t-58.5 -72t-115 -39t-183.5 -12zM953 0v470h141v-470h-141zM1094 0v158h126q37 0 56 10.5t19 42.5v169h141v-139q0 -71 -10.5 -118.5t-37.5 -74t-78.5 -37.5t-133.5 -11h-82zM1532 0
q-73 0 -119.5 11t-72 37.5t-35.5 74t-10 118.5v139h141v-169q0 -32 19 -42.5t56 -10.5h116q5 20 7.5 44t2.5 55q0 47 -8 94t-21 97l140 21q11 -30 17.5 -64t9.5 -69.5t3 -69.5q0 -105 -26.5 -162.5t-81 -80.5t-138.5 -23zM65 266v65l38 11q-4 11 -5.5 24t-1.5 30
q0 53 21.5 83.5t61.5 45t92 18.5v-76q-25 -3 -45.5 -7.5t-42.5 -13.5l-1 -53q0 -16 8.5 -20.5t28.5 0.5l80 22v-67z" />
    <glyph glyph-name="seen_yehHamzaabovear.fina" unicode="&#xfeb4;&#xfe8a;" horiz-adv-x="1855" 
d="M1532 0l161 158h162v-158h-323zM427 -286q-107 0 -178 11t-111.5 37t-58 72t-17.5 114q0 35 3.5 71t11.5 71t18 67l138 -23q-13 -41 -21.5 -80t-8.5 -78q0 -32 2 -57t8 -47h281q63 0 99 4.5t51.5 16t15.5 32.5v124l-132 13q-69 8 -105 30t-49.5 63.5t-13.5 107.5
q0 58 9 98.5t33 64t67.5 34t112.5 10.5h371v-158h-444v-94l133 -13q63 -7 97.5 -27.5t48 -57t13.5 -93.5v-78q0 -67 -17 -112t-58.5 -72t-115 -39t-183.5 -12zM953 0v470h141v-470h-141zM1094 0v158h126q37 0 56 10.5t19 42.5v169h141v-139q0 -71 -10.5 -118.5t-37.5 -74
t-78.5 -37.5t-133.5 -11h-82zM1532 0q-73 0 -119.5 11t-72 37.5t-35.5 74t-10 118.5v139h141v-169q0 -32 19 -42.5t56 -10.5h116q5 20 7.5 44t2.5 55q0 47 -8 94t-21 97l140 21q11 -30 17.5 -64t9.5 -69.5t3 -69.5q0 -105 -26.5 -162.5t-81 -80.5t-138.5 -23zM1855 0v158
q10 0 15 -21.5t5 -57.5q0 -37 -5 -58t-15 -21zM65 266v65l38 11q-4 11 -5.5 24t-1.5 30q0 53 21.5 83.5t61.5 45t92 18.5v-76q-25 -3 -45.5 -7.5t-42.5 -13.5l-1 -53q0 -16 8.5 -20.5t28.5 0.5l80 22v-67z" />
    <glyph glyph-name="uniFD0D" unicode="&#xfeb7;&#xfeae;" horiz-adv-x="1338" arabic-form="isolated" 
d="M1022 0q-73 0 -119.5 11t-72.5 37.5t-35.5 74t-9.5 118.5v139h140v-169q0 -32 19.5 -42.5t55.5 -10.5h117q5 20 7 44t2 55q0 47 -7.5 94t-20.5 97l140 21q11 -30 17 -64t9 -69.5t3 -69.5q0 -105 -26.5 -162.5t-81 -80.5t-137.5 -23zM72 -279l-52 126q39 18 60 37.5
t29 51.5t8 85v449h140v-449q0 -80 -18.5 -136.5t-59 -96t-107.5 -67.5zM257 312v158h186v-158h-186zM443 0v470h140v-470h-140zM583 0v158h127q36 0 55.5 10.5t19.5 42.5v169h140v-139q0 -71 -10 -118.5t-37 -74t-78.5 -37.5t-134.5 -11h-82zM765 586q-14 0 -32.5 13.5
t-32 32t-13.5 32.5q0 15 13.5 33t31.5 31.5t33 13.5t33 -13.5t31.5 -31.5t13.5 -33q0 -14 -14 -32.5t-32 -32t-32 -13.5zM945 586q-14 0 -32.5 13.5t-32 32t-13.5 32.5q0 15 13.5 33t31.5 31.5t33 13.5t33 -13.5t31.5 -31.5t13.5 -33q0 -14 -14 -32.5t-32 -32t-32 -13.5z
M855 778q-14 0 -32.5 13.5t-32 32t-13.5 32.5q0 15 13.5 33t31.5 31.5t33 13.5t33 -13.5t31.5 -31.5t13.5 -33q0 -14 -14 -32.5t-32 -32t-32 -13.5z" />
    <glyph glyph-name="uniFD29" unicode="&#xfeb8;&#xfeae;" horiz-adv-x="1344" arabic-form="final" 
d="M1022 0l160 158h162v-158h-322zM1022 0q-73 0 -119.5 11t-72.5 37.5t-35.5 74t-9.5 118.5v139h140v-169q0 -32 19.5 -42.5t55.5 -10.5h117q5 20 7 44t2 55q0 47 -7.5 94t-20.5 97l140 21q11 -30 17 -64t9 -69.5t3 -69.5q0 -105 -26.5 -162.5t-81 -80.5t-137.5 -23z
M72 -279l-52 126q39 18 60 37.5t29 51.5t8 85v449h140v-449q0 -80 -18.5 -136.5t-59 -96t-107.5 -67.5zM257 312v158h186v-158h-186zM443 0v470h140v-470h-140zM583 0v158h127q36 0 55.5 10.5t19.5 42.5v169h140v-139q0 -71 -10 -118.5t-37 -74t-78.5 -37.5t-134.5 -11h-82z
M1344 0v158q10 0 15 -21.5t5 -57.5q0 -37 -5 -58t-15 -21zM765 586q-14 0 -32.5 13.5t-32 32t-13.5 32.5q0 15 13.5 33t31.5 31.5t33 13.5t33 -13.5t31.5 -31.5t13.5 -33q0 -14 -14 -32.5t-32 -32t-32 -13.5zM945 586q-14 0 -32.5 13.5t-32 32t-13.5 32.5q0 15 13.5 33
t31.5 31.5t33 13.5t33 -13.5t31.5 -31.5t13.5 -33q0 -14 -14 -32.5t-32 -32t-32 -13.5zM855 778q-14 0 -32.5 13.5t-32 32t-13.5 32.5q0 15 13.5 33t31.5 31.5t33 13.5t33 -13.5t31.5 -31.5t13.5 -33q0 -14 -14 -32.5t-32 -32t-32 -13.5z" />
    <glyph glyph-name="sheen_zainar" unicode="&#xfeb7;&#xfeb0;" horiz-adv-x="1338" 
d="M1022 0q-73 0 -119.5 11t-72.5 37.5t-35.5 74t-9.5 118.5v139h140v-169q0 -32 19.5 -42.5t55.5 -10.5h117q5 20 7 44t2 55q0 47 -7.5 94t-20.5 97l140 21q11 -30 17 -64t9 -69.5t3 -69.5q0 -105 -26.5 -162.5t-81 -80.5t-137.5 -23zM72 -279l-52 126q39 18 60 37.5
t29 51.5t8 85v449h140v-449q0 -80 -18.5 -136.5t-59 -96t-107.5 -67.5zM257 312v158h186v-158h-186zM443 0v470h140v-470h-140zM583 0v158h127q36 0 55.5 10.5t19.5 42.5v169h140v-139q0 -71 -10 -118.5t-37 -74t-78.5 -37.5t-134.5 -11h-82zM765 586q-14 0 -32.5 13.5
t-32 32t-13.5 32.5q0 15 13.5 33t31.5 31.5t33 13.5t33 -13.5t31.5 -31.5t13.5 -33q0 -14 -14 -32.5t-32 -32t-32 -13.5zM945 586q-14 0 -32.5 13.5t-32 32t-13.5 32.5q0 15 13.5 33t31.5 31.5t33 13.5t33 -13.5t31.5 -31.5t13.5 -33q0 -14 -14 -32.5t-32 -32t-32 -13.5z
M855 778q-14 0 -32.5 13.5t-32 32t-13.5 32.5q0 15 13.5 33t31.5 31.5t33 13.5t33 -13.5t31.5 -31.5t13.5 -33q0 -14 -14 -32.5t-32 -32t-32 -13.5zM186 586q-14 0 -32.5 13.5t-32 32t-13.5 32.5q0 15 13.5 33t31.5 31.5t33 13.5t33 -13.5t31.5 -31.5t13.5 -33
q0 -14 -14 -32.5t-32 -32t-32 -13.5z" />
    <glyph glyph-name="sheen_zainar.fina" unicode="&#xfeb8;&#xfeb0;" horiz-adv-x="1344" 
d="M1022 0l160 158h162v-158h-322zM1022 0q-73 0 -119.5 11t-72.5 37.5t-35.5 74t-9.5 118.5v139h140v-169q0 -32 19.5 -42.5t55.5 -10.5h117q5 20 7 44t2 55q0 47 -7.5 94t-20.5 97l140 21q11 -30 17 -64t9 -69.5t3 -69.5q0 -105 -26.5 -162.5t-81 -80.5t-137.5 -23z
M72 -279l-52 126q39 18 60 37.5t29 51.5t8 85v449h140v-449q0 -80 -18.5 -136.5t-59 -96t-107.5 -67.5zM257 312v158h186v-158h-186zM443 0v470h140v-470h-140zM583 0v158h127q36 0 55.5 10.5t19.5 42.5v169h140v-139q0 -71 -10 -118.5t-37 -74t-78.5 -37.5t-134.5 -11h-82z
M1344 0v158q10 0 15 -21.5t5 -57.5q0 -37 -5 -58t-15 -21zM765 586q-14 0 -32.5 13.5t-32 32t-13.5 32.5q0 15 13.5 33t31.5 31.5t33 13.5t33 -13.5t31.5 -31.5t13.5 -33q0 -14 -14 -32.5t-32 -32t-32 -13.5zM945 586q-14 0 -32.5 13.5t-32 32t-13.5 32.5q0 15 13.5 33
t31.5 31.5t33 13.5t33 -13.5t31.5 -31.5t13.5 -33q0 -14 -14 -32.5t-32 -32t-32 -13.5zM855 778q-14 0 -32.5 13.5t-32 32t-13.5 32.5q0 15 13.5 33t31.5 31.5t33 13.5t33 -13.5t31.5 -31.5t13.5 -33q0 -14 -14 -32.5t-32 -32t-32 -13.5zM186 586q-14 0 -32.5 13.5t-32 32
t-13.5 32.5q0 15 13.5 33t31.5 31.5t33 13.5t33 -13.5t31.5 -31.5t13.5 -33q0 -14 -14 -32.5t-32 -32t-32 -13.5z" />
    <glyph glyph-name="uniFD0F" unicode="&#xfebb;&#xfeae;" horiz-adv-x="1152" arabic-form="isolated" 
d="M935 -1v311q-35 11 -119 11q-116 0 -174.5 -53.5t-58.5 -161.5h-140v363h140v-140q21 46 64.5 79.5t102 52t126.5 18.5q77 0 120.5 -15.5t61 -53.5t17.5 -104v-307h-140zM72 -280l-52 127q39 17 60 36.5t29 51.5t8 86v448h140v-448q0 -81 -18.5 -137.5t-59 -95.5
t-107.5 -68zM257 311v158h186v-158h-186zM443 -1v159h632v-159h-632z" />
    <glyph glyph-name="uniFD2B" unicode="&#xfebc;&#xfeae;" horiz-adv-x="1153" arabic-form="final" 
d="M1075 0v158h78v-158h-78zM935 -1v311q-35 11 -119 11q-116 0 -174.5 -53.5t-58.5 -161.5h-140v363h140v-140q21 46 64.5 79.5t102 52t126.5 18.5q77 0 120.5 -15.5t61 -53.5t17.5 -104v-307h-140zM72 -280l-52 127q39 17 60 36.5t29 51.5t8 86v448h140v-448
q0 -81 -18.5 -137.5t-59 -95.5t-107.5 -68zM257 311v158h186v-158h-186zM443 -1v159h632v-159h-632zM1153 0v158q9 0 14.5 -21.5t5.5 -57.5q0 -37 -5.5 -58t-14.5 -21z" />
    <glyph glyph-name="sad_zainar" unicode="&#xfebb;&#xfeb0;" horiz-adv-x="1152" 
d="M935 -1v311q-35 11 -119 11q-116 0 -174.5 -53.5t-58.5 -161.5h-140v363h140v-140q21 46 64.5 79.5t102 52t126.5 18.5q77 0 120.5 -15.5t61 -53.5t17.5 -104v-307h-140zM72 -280l-52 127q39 17 60 36.5t29 51.5t8 86v448h140v-448q0 -81 -18.5 -137.5t-59 -95.5
t-107.5 -68zM257 311v158h186v-158h-186zM443 -1v159h632v-159h-632zM186 586q-14 0 -32.5 13.5t-32 32t-13.5 32.5q0 15 13.5 33t31.5 31.5t33 13.5t33 -13.5t31.5 -31.5t13.5 -33q0 -14 -14 -32.5t-32 -32t-32 -13.5z" />
    <glyph glyph-name="sad_zainar.fina" unicode="&#xfebc;&#xfeb0;" horiz-adv-x="1153" 
d="M1075 0v158h78v-158h-78zM935 -1v311q-35 11 -119 11q-116 0 -174.5 -53.5t-58.5 -161.5h-140v363h140v-140q21 46 64.5 79.5t102 52t126.5 18.5q77 0 120.5 -15.5t61 -53.5t17.5 -104v-307h-140zM72 -280l-52 127q39 17 60 36.5t29 51.5t8 86v448h140v-448
q0 -81 -18.5 -137.5t-59 -95.5t-107.5 -68zM257 311v158h186v-158h-186zM443 -1v159h632v-159h-632zM1153 0v158q9 0 14.5 -21.5t5.5 -57.5q0 -37 -5.5 -58t-14.5 -21zM186 586q-14 0 -32.5 13.5t-32 32t-13.5 32.5q0 15 13.5 33t31.5 31.5t33 13.5t33 -13.5t31.5 -31.5
t13.5 -33q0 -14 -14 -32.5t-32 -32t-32 -13.5z" />
    <glyph glyph-name="uniFD10" unicode="&#xfebf;&#xfeae;" horiz-adv-x="1152" arabic-form="isolated" 
d="M935 -1v311q-35 11 -119 11q-116 0 -174.5 -53.5t-58.5 -161.5h-140v363h140v-140q21 46 64.5 79.5t102 52t126.5 18.5q77 0 120.5 -15.5t61 -53.5t17.5 -104v-307h-140zM72 -280l-52 127q39 17 60 36.5t29 51.5t8 86v448h140v-448q0 -81 -18.5 -137.5t-59 -95.5
t-107.5 -68zM257 311v158h186v-158h-186zM443 -1v159h632v-159h-632zM803 586q-14 0 -32.5 13.5t-32 32t-13.5 32.5q0 15 13.5 33t31.5 31.5t33 13.5t33 -13.5t31.5 -31.5t13.5 -33q0 -14 -14 -32.5t-32 -32t-32 -13.5z" />
    <glyph glyph-name="uniFD2C" unicode="&#xfec0;&#xfeae;" horiz-adv-x="1153" arabic-form="final" 
d="M1075 0v158h78v-158h-78zM935 -1v311q-35 11 -119 11q-116 0 -174.5 -53.5t-58.5 -161.5h-140v363h140v-140q21 46 64.5 79.5t102 52t126.5 18.5q77 0 120.5 -15.5t61 -53.5t17.5 -104v-307h-140zM72 -280l-52 127q39 17 60 36.5t29 51.5t8 86v448h140v-448
q0 -81 -18.5 -137.5t-59 -95.5t-107.5 -68zM257 311v158h186v-158h-186zM443 -1v159h632v-159h-632zM1153 0v158q9 0 14.5 -21.5t5.5 -57.5q0 -37 -5.5 -58t-14.5 -21zM818 586q-14 0 -32.5 13.5t-32 32t-13.5 32.5q0 15 13.5 33t31.5 31.5t33 13.5t33 -13.5t31.5 -31.5
t13.5 -33q0 -14 -14 -32.5t-32 -32t-32 -13.5z" />
    <glyph glyph-name="dad_zainar" unicode="&#xfebf;&#xfeb0;" horiz-adv-x="1152" 
d="M935 -1v311q-35 11 -119 11q-116 0 -174.5 -53.5t-58.5 -161.5h-140v363h140v-140q21 46 64.5 79.5t102 52t126.5 18.5q77 0 120.5 -15.5t61 -53.5t17.5 -104v-307h-140zM72 -280l-52 127q39 17 60 36.5t29 51.5t8 86v448h140v-448q0 -81 -18.5 -137.5t-59 -95.5
t-107.5 -68zM257 311v158h186v-158h-186zM443 -1v159h632v-159h-632zM803 586q-14 0 -32.5 13.5t-32 32t-13.5 32.5q0 15 13.5 33t31.5 31.5t33 13.5t33 -13.5t31.5 -31.5t13.5 -33q0 -14 -14 -32.5t-32 -32t-32 -13.5zM186 586q-14 0 -32.5 13.5t-32 32t-13.5 32.5
q0 15 13.5 33t31.5 31.5t33 13.5t33 -13.5t31.5 -31.5t13.5 -33q0 -14 -14 -32.5t-32 -32t-32 -13.5z" />
    <glyph glyph-name="dad_zainar.fina" unicode="&#xfec0;&#xfeb0;" horiz-adv-x="1153" 
d="M1075 0v158h78v-158h-78zM935 -1v311q-35 11 -119 11q-116 0 -174.5 -53.5t-58.5 -161.5h-140v363h140v-140q21 46 64.5 79.5t102 52t126.5 18.5q77 0 120.5 -15.5t61 -53.5t17.5 -104v-307h-140zM72 -280l-52 127q39 17 60 36.5t29 51.5t8 86v448h140v-448
q0 -81 -18.5 -137.5t-59 -95.5t-107.5 -68zM257 311v158h186v-158h-186zM443 -1v159h632v-159h-632zM1153 0v158q9 0 14.5 -21.5t5.5 -57.5q0 -37 -5.5 -58t-14.5 -21zM818 586q-14 0 -32.5 13.5t-32 32t-13.5 32.5q0 15 13.5 33t31.5 31.5t33 13.5t33 -13.5t31.5 -31.5
t13.5 -33q0 -14 -14 -32.5t-32 -32t-32 -13.5zM186 586q-14 0 -32.5 13.5t-32 32t-13.5 32.5q0 15 13.5 33t31.5 31.5t33 13.5t33 -13.5t31.5 -31.5t13.5 -33q0 -14 -14 -32.5t-32 -32t-32 -13.5z" />
    <glyph glyph-name="meem_rehar.fina" unicode="&#xfee4;&#xfeae;" horiz-adv-x="1021" 
d="M711 -14q-67 0 -114 11.5t-77 35.5t-43.5 60.5t-13.5 86.5q0 42 4 70.5t14 61.5h-224v158h687v-446q-56 -21 -109.5 -29.5t-123.5 -8.5zM766 0l168 158h87v-158h-255zM613 145h149q24 0 32.5 9t8.5 33v125h-150q-23 0 -31.5 -9t-8.5 -32v-126zM72 -279l-52 126
q39 18 60 37.5t29 51.5t8 85v449h140v-449q0 -80 -18.5 -136.5t-59 -96t-107.5 -67.5zM1021 0v158q9 0 14.5 -21.5t5.5 -57.5q0 -37 -5.5 -58t-14.5 -21z" />
    <glyph glyph-name="meem_zainar.fina" unicode="&#xfee4;&#xfeb0;" horiz-adv-x="1021" 
d="M711 -14q-67 0 -114 11.5t-77 35.5t-43.5 60.5t-13.5 86.5q0 42 4 70.5t14 61.5h-224v158h687v-446q-56 -21 -109.5 -29.5t-123.5 -8.5zM766 0l168 158h87v-158h-255zM613 145h149q24 0 32.5 9t8.5 33v125h-150q-23 0 -31.5 -9t-8.5 -32v-126zM72 -279l-52 126
q39 18 60 37.5t29 51.5t8 85v449h140v-449q0 -80 -18.5 -136.5t-59 -96t-107.5 -67.5zM1021 0v158q9 0 14.5 -21.5t5.5 -57.5q0 -37 -5.5 -58t-14.5 -21zM186 586q-14 0 -32.5 13.5t-32 32t-13.5 32.5q0 15 13.5 33t31.5 31.5t33 13.5t33 -13.5t31.5 -31.5t13.5 -33
q0 -14 -14 -32.5t-32 -32t-32 -13.5z" />
    <glyph glyph-name="uniFC8A" unicode="&#xfee8;&#xfeae;" horiz-adv-x="661" arabic-form="final" 
d="M72 -279l-52 126q39 18 60 37.5t29 51.5t8 85v449h140v-449q0 -80 -18.5 -136.5t-59 -96t-107.5 -67.5zM257 312v158h186v-158h-186zM443 0v470h140v-312h78v-158h-218zM661 0v158q9 0 14.5 -21.5t5.5 -57.5q0 -37 -5.5 -58t-14.5 -21zM513 586q-14 0 -32.5 13.5t-32 32
t-13.5 32.5q0 15 13.5 33t31.5 31.5t33 13.5t33 -13.5t31.5 -31.5t13.5 -33q0 -14 -14 -32.5t-32 -32t-32 -13.5z" />
    <glyph glyph-name="uniFC8B" unicode="&#xfee8;&#xfeb0;" horiz-adv-x="661" arabic-form="final" 
d="M72 -279l-52 126q39 18 60 37.5t29 51.5t8 85v449h140v-449q0 -80 -18.5 -136.5t-59 -96t-107.5 -67.5zM257 312v158h186v-158h-186zM443 0v470h140v-312h78v-158h-218zM661 0v158q9 0 14.5 -21.5t5.5 -57.5q0 -37 -5.5 -58t-14.5 -21zM513 586q-14 0 -32.5 13.5t-32 32
t-13.5 32.5q0 15 13.5 33t31.5 31.5t33 13.5t33 -13.5t31.5 -31.5t13.5 -33q0 -14 -14 -32.5t-32 -32t-32 -13.5zM186 586q-14 0 -32.5 13.5t-32 32t-13.5 32.5q0 15 13.5 33t31.5 31.5t33 13.5t33 -13.5t31.5 -31.5t13.5 -33q0 -14 -14 -32.5t-32 -32t-32 -13.5z" />
    <glyph glyph-name="uniFC8D" unicode="&#xfee8;&#xfee6;" horiz-adv-x="1005" arabic-form="final" 
d="M787 0v470h141v-312h77v-158h-218zM601 312v158h186v-158h-186zM327 -240q-80 0 -131.5 11t-80.5 38t-41 74t-12 120q0 42 3.5 83.5t11.5 82t18 78.5l134 -22q-13 -51 -19.5 -99.5t-6.5 -95.5q0 -35 2 -61.5t8 -49.5h143q53 0 78.5 10.5t25.5 42.5v498h141v-472
q0 -70 -10.5 -116.5t-39.5 -73t-83 -37.5t-141 -11zM332 587q-14 0 -32 13.5t-32 32t-14 32.5q0 15 13.5 33t32 31.5t32.5 13.5q16 0 33.5 -13.5t31 -31.5t13.5 -33q0 -14 -14 -32.5t-31.5 -32t-32.5 -13.5zM1005 0v158q10 0 15 -21.5t5 -57.5q0 -37 -5 -58t-15 -21z
M858 586q-14 0 -32.5 13.5t-32 32t-13.5 32.5q0 15 13.5 33t31.5 31.5t33 13.5t33 -13.5t31.5 -31.5t13.5 -33q0 -14 -14 -32.5t-32 -32t-32 -13.5z" />
    <glyph glyph-name="uniFC8E" unicode="&#xfee8;&#xfef0;" horiz-adv-x="1171" arabic-form="final" 
d="M953 0v470h141v-312h77v-158h-218zM62 -52q0 35 3.5 71t11.5 71t18 67l138 -23q-13 -41 -21.5 -80t-8.5 -78q0 -32 2 -57t8 -47h281q63 0 99 4.5t51.5 16t15.5 32.5v124l-132 13q-69 8 -105 30t-49.5 63.5t-13.5 107.5q0 58 9 98.5t33 64t67.5 34t112.5 10.5h371v-158
h-444v-94l133 -13q63 -7 97.5 -27.5t48 -57t13.5 -93.5v-78q0 -67 -17 -112t-58.5 -72t-115 -39t-183.5 -12q-107 0 -178 11t-111.5 37t-58 72t-17.5 114zM1171 0v158q10 0 15 -21.5t5 -57.5q0 -37 -5 -58t-15 -21zM1024 586q-14 0 -32.5 13.5t-32 32t-13.5 32.5
q0 15 13.5 33t31.5 31.5t33 13.5t33 -13.5t31.5 -31.5t13.5 -33q0 -14 -14 -32.5t-32 -32t-32 -13.5z" />
    <glyph glyph-name="uniFC8F" unicode="&#xfee8;&#xfef2;" horiz-adv-x="1171" arabic-form="final" 
d="M953 0v470h141v-312h77v-158h-218zM62 -52q0 35 3.5 71t11.5 71t18 67l138 -23q-13 -41 -21.5 -80t-8.5 -78q0 -32 2 -57t8 -47h281q63 0 99 4.5t51.5 16t15.5 32.5v124l-132 13q-69 8 -105 30t-49.5 63.5t-13.5 107.5q0 58 9 98.5t33 64t67.5 34t112.5 10.5h371v-158
h-444v-94l133 -13q63 -7 97.5 -27.5t48 -57t13.5 -93.5v-78q0 -67 -17 -112t-58.5 -72t-115 -39t-183.5 -12q-107 0 -178 11t-111.5 37t-58 72t-17.5 114zM1171 0v158q10 0 15 -21.5t5 -57.5q0 -37 -5 -58t-15 -21zM1024 586q-14 0 -32.5 13.5t-32 32t-13.5 32.5
q0 15 13.5 33t31.5 31.5t33 13.5t33 -13.5t31.5 -31.5t13.5 -33q0 -14 -14 -32.5t-32 -32t-32 -13.5zM345 -486q-14 0 -32.5 13.5t-32 32t-13.5 32.5q0 15 13.5 33t31.5 31.5t33 13.5t33 -13.5t31.5 -31.5t13.5 -33q0 -14 -14 -32.5t-32 -32t-32 -13.5zM525 -486
q-14 0 -32.5 13.5t-32 32t-13.5 32.5q0 15 13.5 33t31.5 31.5t33 13.5t33 -13.5t31.5 -31.5t13.5 -33q0 -14 -14 -32.5t-32 -32t-32 -13.5z" />
    <glyph glyph-name="noon_yehHamzaabovear.fina" unicode="&#xfee8;&#xfe8a;" horiz-adv-x="1171" 
d="M953 0v470h141v-312h77v-158h-218zM62 -52q0 35 3.5 71t11.5 71t18 67l138 -23q-13 -41 -21.5 -80t-8.5 -78q0 -32 2 -57t8 -47h281q63 0 99 4.5t51.5 16t15.5 32.5v124l-132 13q-69 8 -105 30t-49.5 63.5t-13.5 107.5q0 58 9 98.5t33 64t67.5 34t112.5 10.5h371v-158
h-444v-94l133 -13q63 -7 97.5 -27.5t48 -57t13.5 -93.5v-78q0 -67 -17 -112t-58.5 -72t-115 -39t-183.5 -12q-107 0 -178 11t-111.5 37t-58 72t-17.5 114zM1171 0v158q10 0 15 -21.5t5 -57.5q0 -37 -5 -58t-15 -21zM1024 586q-14 0 -32.5 13.5t-32 32t-13.5 32.5
q0 15 13.5 33t31.5 31.5t33 13.5t33 -13.5t31.5 -31.5t13.5 -33q0 -14 -14 -32.5t-32 -32t-32 -13.5zM26 266v65l38 11q-4 11 -5.5 24t-1.5 30q0 53 21.5 83.5t61.5 45t92 18.5v-76q-25 -3 -45.5 -7.5t-42.5 -13.5l-1 -53q0 -16 8.5 -20.5t28.5 0.5l80 22v-67z" />
    <glyph glyph-name="alefMaksura_rehar.fina" unicode="&#x649;&#xfeae;" horiz-adv-x="661" 
d="M72 -279l-52 126q39 18 60 37.5t29 51.5t8 85v449h140v-449q0 -80 -18.5 -136.5t-59 -96t-107.5 -67.5zM257 312v158h186v-158h-186zM443 0v470h140v-312h78v-158h-218zM661 0v158q9 0 14.5 -21.5t5.5 -57.5q0 -37 -5.5 -58t-14.5 -21z" />
    <glyph glyph-name="alefMaksura_zainar.fina" unicode="&#x649;&#xfeb0;" horiz-adv-x="661" 
d="M72 -279l-52 126q39 18 60 37.5t29 51.5t8 85v449h140v-449q0 -80 -18.5 -136.5t-59 -96t-107.5 -67.5zM257 312v158h186v-158h-186zM443 0v470h140v-312h78v-158h-218zM661 0v158q9 0 14.5 -21.5t5.5 -57.5q0 -37 -5.5 -58t-14.5 -21zM186 586q-14 0 -32.5 13.5t-32 32
t-13.5 32.5q0 15 13.5 33t31.5 31.5t33 13.5t33 -13.5t31.5 -31.5t13.5 -33q0 -14 -14 -32.5t-32 -32t-32 -13.5z" />
    <glyph glyph-name="alefMaksura_noonar.fina" unicode="&#x649;&#xfee6;" horiz-adv-x="1005" 
d="M787 0v470h141v-312h77v-158h-218zM601 312v158h186v-158h-186zM327 -240q-80 0 -131.5 11t-80.5 38t-41 74t-12 120q0 42 3.5 83.5t11.5 82t18 78.5l134 -22q-13 -51 -19.5 -99.5t-6.5 -95.5q0 -35 2 -61.5t8 -49.5h143q53 0 78.5 10.5t25.5 42.5v498h141v-472
q0 -70 -10.5 -116.5t-39.5 -73t-83 -37.5t-141 -11zM332 587q-14 0 -32 13.5t-32 32t-14 32.5q0 15 13.5 33t32 31.5t32.5 13.5q16 0 33.5 -13.5t31 -31.5t13.5 -33q0 -14 -14 -32.5t-31.5 -32t-32.5 -13.5zM1005 0v158q10 0 15 -21.5t5 -57.5q0 -37 -5 -58t-15 -21z" />
    <glyph glyph-name="uniFC91" unicode="&#xfef4;&#xfeae;" horiz-adv-x="661" arabic-form="final" 
d="M72 -279l-52 126q39 18 60 37.5t29 51.5t8 85v449h140v-449q0 -80 -18.5 -136.5t-59 -96t-107.5 -67.5zM257 312v158h186v-158h-186zM443 0v470h140v-312h78v-158h-218zM661 0v158q9 0 14.5 -21.5t5.5 -57.5q0 -37 -5.5 -58t-14.5 -21zM422 -236q-14 0 -32.5 13.5t-32 32
t-13.5 32.5q0 15 13.5 33t31.5 31.5t33 13.5t33 -13.5t31.5 -31.5t13.5 -33q0 -14 -14 -32.5t-32 -32t-32 -13.5zM602 -236q-14 0 -32.5 13.5t-32 32t-13.5 32.5q0 15 13.5 33t31.5 31.5t33 13.5t33 -13.5t31.5 -31.5t13.5 -33q0 -14 -14 -32.5t-32 -32t-32 -13.5z" />
    <glyph glyph-name="uniFC92" unicode="&#xfef4;&#xfeb0;" horiz-adv-x="661" arabic-form="final" 
d="M72 -279l-52 126q39 18 60 37.5t29 51.5t8 85v449h140v-449q0 -80 -18.5 -136.5t-59 -96t-107.5 -67.5zM257 312v158h186v-158h-186zM443 0v470h140v-312h78v-158h-218zM661 0v158q9 0 14.5 -21.5t5.5 -57.5q0 -37 -5.5 -58t-14.5 -21zM422 -236q-14 0 -32.5 13.5t-32 32
t-13.5 32.5q0 15 13.5 33t31.5 31.5t33 13.5t33 -13.5t31.5 -31.5t13.5 -33q0 -14 -14 -32.5t-32 -32t-32 -13.5zM602 -236q-14 0 -32.5 13.5t-32 32t-13.5 32.5q0 15 13.5 33t31.5 31.5t33 13.5t33 -13.5t31.5 -31.5t13.5 -33q0 -14 -14 -32.5t-32 -32t-32 -13.5zM186 586
q-14 0 -32.5 13.5t-32 32t-13.5 32.5q0 15 13.5 33t31.5 31.5t33 13.5t33 -13.5t31.5 -31.5t13.5 -33q0 -14 -14 -32.5t-32 -32t-32 -13.5z" />
    <glyph glyph-name="uniFC94" unicode="&#xfef4;&#xfee6;" horiz-adv-x="1005" arabic-form="final" 
d="M787 0v470h141v-312h77v-158h-218zM601 312v158h186v-158h-186zM327 -240q-80 0 -131.5 11t-80.5 38t-41 74t-12 120q0 42 3.5 83.5t11.5 82t18 78.5l134 -22q-13 -51 -19.5 -99.5t-6.5 -95.5q0 -35 2 -61.5t8 -49.5h143q53 0 78.5 10.5t25.5 42.5v498h141v-472
q0 -70 -10.5 -116.5t-39.5 -73t-83 -37.5t-141 -11zM332 587q-14 0 -32 13.5t-32 32t-14 32.5q0 15 13.5 33t32 31.5t32.5 13.5q16 0 33.5 -13.5t31 -31.5t13.5 -33q0 -14 -14 -32.5t-31.5 -32t-32.5 -13.5zM1005 0v158q10 0 15 -21.5t5 -57.5q0 -37 -5 -58t-15 -21z
M767 -236q-14 0 -32.5 13.5t-32 32t-13.5 32.5q0 15 13.5 33t31.5 31.5t33 13.5t33 -13.5t31.5 -31.5t13.5 -33q0 -14 -14 -32.5t-32 -32t-32 -13.5zM947 -236q-14 0 -32.5 13.5t-32 32t-13.5 32.5q0 15 13.5 33t31.5 31.5t33 13.5t33 -13.5t31.5 -31.5t13.5 -33
q0 -14 -14 -32.5t-32 -32t-32 -13.5z" />
    <glyph glyph-name="uniFC64" unicode="&#xfe8c;&#xfeae;" horiz-adv-x="661" arabic-form="final" 
d="M72 -279l-52 126q39 18 60 37.5t29 51.5t8 85v449h140v-449q0 -80 -18.5 -136.5t-59 -96t-107.5 -67.5zM257 312v158h186v-158h-186zM443 0v470h140v-312h78v-158h-218zM661 0v158q9 0 14.5 -21.5t5.5 -57.5q0 -37 -5.5 -58t-14.5 -21zM395 576v65l38 11q-4 11 -5.5 24
t-1.5 30q0 53 21.5 83.5t61.5 45t92 18.5v-76q-25 -3 -45.5 -7.5t-42.5 -13.5l-1 -53q0 -16 8.5 -20.5t28.5 0.5l80 22v-67z" />
    <glyph glyph-name="uniFC65" unicode="&#xfe8c;&#xfeb0;" horiz-adv-x="661" arabic-form="final" 
d="M72 -279l-52 126q39 18 60 37.5t29 51.5t8 85v449h140v-449q0 -80 -18.5 -136.5t-59 -96t-107.5 -67.5zM257 312v158h186v-158h-186zM443 0v470h140v-312h78v-158h-218zM661 0v158q9 0 14.5 -21.5t5.5 -57.5q0 -37 -5.5 -58t-14.5 -21zM395 576v65l38 11q-4 11 -5.5 24
t-1.5 30q0 53 21.5 83.5t61.5 45t92 18.5v-76q-25 -3 -45.5 -7.5t-42.5 -13.5l-1 -53q0 -16 8.5 -20.5t28.5 0.5l80 22v-67zM186 586q-14 0 -32.5 13.5t-32 32t-13.5 32.5q0 15 13.5 33t31.5 31.5t33 13.5t33 -13.5t31.5 -31.5t13.5 -33q0 -14 -14 -32.5t-32 -32t-32 -13.5z
" />
    <glyph glyph-name="uniFC67" unicode="&#xfe8c;&#xfee6;" horiz-adv-x="1005" arabic-form="final" 
d="M787 0v470h141v-312h77v-158h-218zM601 312v158h186v-158h-186zM327 -240q-80 0 -131.5 11t-80.5 38t-41 74t-12 120q0 42 3.5 83.5t11.5 82t18 78.5l134 -22q-13 -51 -19.5 -99.5t-6.5 -95.5q0 -35 2 -61.5t8 -49.5h143q53 0 78.5 10.5t25.5 42.5v498h141v-472
q0 -70 -10.5 -116.5t-39.5 -73t-83 -37.5t-141 -11zM332 587q-14 0 -32 13.5t-32 32t-14 32.5q0 15 13.5 33t32 31.5t32.5 13.5q16 0 33.5 -13.5t31 -31.5t13.5 -33q0 -14 -14 -32.5t-31.5 -32t-32.5 -13.5zM1005 0v158q10 0 15 -21.5t5 -57.5q0 -37 -5 -58t-15 -21z
M740 576v65l38 11q-4 11 -5.5 24t-1.5 30q0 53 21.5 83.5t61.5 45t92 18.5v-76q-25 -3 -45.5 -7.5t-42.5 -13.5l-1 -53q0 -16 8.5 -20.5t28.5 0.5l80 22v-67z" />
    <glyph glyph-name="uniFC68" unicode="&#xfe8c;&#xfef0;" horiz-adv-x="1171" arabic-form="final" 
d="M953 0v470h141v-312h77v-158h-218zM62 -52q0 35 3.5 71t11.5 71t18 67l138 -23q-13 -41 -21.5 -80t-8.5 -78q0 -32 2 -57t8 -47h281q63 0 99 4.5t51.5 16t15.5 32.5v124l-132 13q-69 8 -105 30t-49.5 63.5t-13.5 107.5q0 58 9 98.5t33 64t67.5 34t112.5 10.5h371v-158
h-444v-94l133 -13q63 -7 97.5 -27.5t48 -57t13.5 -93.5v-78q0 -67 -17 -112t-58.5 -72t-115 -39t-183.5 -12q-107 0 -178 11t-111.5 37t-58 72t-17.5 114zM1171 0v158q10 0 15 -21.5t5 -57.5q0 -37 -5 -58t-15 -21zM906 576v65l38 11q-4 11 -5.5 24t-1.5 30q0 53 21.5 83.5
t61.5 45t92 18.5v-76q-25 -3 -45.5 -7.5t-42.5 -13.5l-1 -53q0 -16 8.5 -20.5t28.5 0.5l80 22v-67z" />
    <glyph glyph-name="uniFC69" unicode="&#xfe8c;&#xfef2;" horiz-adv-x="1171" arabic-form="final" 
d="M953 0v470h141v-312h77v-158h-218zM62 -52q0 35 3.5 71t11.5 71t18 67l138 -23q-13 -41 -21.5 -80t-8.5 -78q0 -32 2 -57t8 -47h281q63 0 99 4.5t51.5 16t15.5 32.5v124l-132 13q-69 8 -105 30t-49.5 63.5t-13.5 107.5q0 58 9 98.5t33 64t67.5 34t112.5 10.5h371v-158
h-444v-94l133 -13q63 -7 97.5 -27.5t48 -57t13.5 -93.5v-78q0 -67 -17 -112t-58.5 -72t-115 -39t-183.5 -12q-107 0 -178 11t-111.5 37t-58 72t-17.5 114zM1171 0v158q10 0 15 -21.5t5 -57.5q0 -37 -5 -58t-15 -21zM906 576v65l38 11q-4 11 -5.5 24t-1.5 30q0 53 21.5 83.5
t61.5 45t92 18.5v-76q-25 -3 -45.5 -7.5t-42.5 -13.5l-1 -53q0 -16 8.5 -20.5t28.5 0.5l80 22v-67zM345 -486q-14 0 -32.5 13.5t-32 32t-13.5 32.5q0 15 13.5 33t31.5 31.5t33 13.5t33 -13.5t31.5 -31.5t13.5 -33q0 -14 -14 -32.5t-32 -32t-32 -13.5zM525 -486
q-14 0 -32.5 13.5t-32 32t-13.5 32.5q0 15 13.5 33t31.5 31.5t33 13.5t33 -13.5t31.5 -31.5t13.5 -33q0 -14 -14 -32.5t-32 -32t-32 -13.5z" />
    <glyph glyph-name="yehHamzaabove_yehHamzaabovear.fina" unicode="&#xfe8c;&#xfe8a;" horiz-adv-x="1171" 
d="M953 0v470h141v-312h77v-158h-218zM62 -52q0 35 3.5 71t11.5 71t18 67l138 -23q-13 -41 -21.5 -80t-8.5 -78q0 -32 2 -57t8 -47h281q63 0 99 4.5t51.5 16t15.5 32.5v124l-132 13q-69 8 -105 30t-49.5 63.5t-13.5 107.5q0 58 9 98.5t33 64t67.5 34t112.5 10.5h371v-158
h-444v-94l133 -13q63 -7 97.5 -27.5t48 -57t13.5 -93.5v-78q0 -67 -17 -112t-58.5 -72t-115 -39t-183.5 -12q-107 0 -178 11t-111.5 37t-58 72t-17.5 114zM1171 0v158q10 0 15 -21.5t5 -57.5q0 -37 -5 -58t-15 -21zM906 576v65l38 11q-4 11 -5.5 24t-1.5 30q0 53 21.5 83.5
t61.5 45t92 18.5v-76q-25 -3 -45.5 -7.5t-42.5 -13.5l-1 -53q0 -16 8.5 -20.5t28.5 0.5l80 22v-67zM22 266v65l38 11q-4 11 -5.5 24t-1.5 30q0 53 21.5 83.5t61.5 45t92 18.5v-76q-25 -3 -45.5 -7.5t-42.5 -13.5l-1 -53q0 -16 8.5 -20.5t28.5 0.5l80 22v-67z" />
    <glyph glyph-name="uniFDF2" unicode="&#x627;&#xfedf;&#xfee0;&#xfeea;" horiz-adv-x="1622" arabic-form="isolated" 
d="M1404 0v630h141v-630h-141zM989 0v158h132v472h141v-630h-273zM989 0q-10 0 -15 21t-5 58q0 36 5 57.5t15 21.5v-158zM912 0v158h77v-158h-77zM639 0v158h132v472h141v-630h-273zM639 0q-10 0 -15 21t-5 58q0 36 5 57.5t15 21.5v-158zM989 0v158q10 0 15 -21.5t5 -57.5
q0 -37 -5 -58t-15 -21zM561 0v158h78v-158h-78zM299 0q-71 0 -116.5 10t-71 35.5t-35.5 71.5t-10 118t10 118t35.5 71.5t71 35.5t116.5 10h263v-470h-263zM259 158h163v154h-163q-22 0 -32.5 -9.5t-10.5 -27.5v-80q0 -18 10.5 -27.5t32.5 -9.5zM639 0v158q9 0 14.5 -21.5
t5.5 -57.5q0 -37 -5.5 -58t-14.5 -21zM741.139 731.072q-20.167 0 -30.25 17.2256t-10.083 55.0381q0 23.5273 2.94043 47.4756q2.94141 23.9473 8.82324 44.9541l62.1797 9.24316q-4.20117 -18.4863 -6.30176 -36.5518q-2.10059 -18.0664 -2.10059 -35.7119
q0 -13.4443 1.26074 -23.9473q1.25977 -10.5039 2.94043 -17.2256l40.333 10.9238q-5.88184 12.6035 -5.88184 37.8115v72.2637l66.3818 18.4854v-111.756l36.9717 9.24316v111.756l76.4648 30.25v-177.297l-224.353 -59.6592q-5.88184 -0.84082 -10.5039 -1.68066
q-4.62109 -0.84082 -8.82227 -0.84082zM810.041 978.112v166.374l66.3809 17.6455v-166.374z" />
    <glyph glyph-name="uniFE8E" unicode="&#x627;" horiz-adv-x="295" arabic-form="final" 
d="M77 0v630h141v-472h77v-158h-218zM295 0v158q10 0 15 -21.5t5 -57.5q0 -37 -5 -58t-15 -21z" />
    <glyph glyph-name="uniFE84" unicode="&#x623;" horiz-adv-x="295" arabic-form="final" 
d="M77 0v470h141v-312h77v-158h-218zM295 0v158q10 0 15 -21.5t5 -57.5q0 -37 -5 -58t-15 -21zM31 534v65l38 11q-4 11 -5.5 24t-1.5 30q0 53 21.5 83.5t61.5 45t92 18.5v-76q-25 -3 -45.5 -7.5t-42.5 -13.5l-1 -53q0 -16 8.5 -20.5t28.5 0.5l80 22v-67z" />
    <glyph glyph-name="uniFE88" unicode="&#x625;" horiz-adv-x="295" arabic-form="final" 
d="M77 0v630h141v-472h77v-158h-218zM295 0v158q10 0 15 -21.5t5 -57.5q0 -37 -5 -58t-15 -21zM31 -353v65l38 11q-4 11 -5.5 24t-1.5 30q0 53 21.5 83.5t61.5 45t92 18.5v-76q-25 -3 -45.5 -7.5t-42.5 -13.5l-1 -53q0 -16 8.5 -20.5t28.5 0.5l80 22v-67z" />
    <glyph glyph-name="uniFE82" unicode="&#x622;" horiz-adv-x="295" arabic-form="final" 
d="M77 0v470h141v-312h77v-158h-218zM295 0v158q10 0 15 -21.5t5 -57.5q0 -37 -5 -58t-15 -21zM159 563q-16 0 -29 8.5t-33 32.5l-68 -31l-23 40q43 33 67 49.5t38 22.5t24 6q11 0 19.5 -3.5t18.5 -12.5t24 -26l67 31l23 -40q-40 -33 -65 -49.5t-39 -22t-24 -5.5z" />
    <glyph glyph-name="uniFB51" unicode="&#x671;" horiz-adv-x="295" arabic-form="final" 
d="M77 0v470h141v-312h77v-158h-218zM295 0v158q10 0 15 -21.5t5 -57.5q0 -37 -5 -58t-15 -21zM-4 598q0 86 44 133t127 47q73 0 107.5 -21t34.5 -65v-94h-105v102q-7 3 -16 4.5t-21 1.5q-33 0 -49 -27t-16 -81h-106zM-34 548v66h343v-66h-343z" />
    <glyph glyph-name="uni066E.init" unicode="&#x66e;" horiz-adv-x="350" 
d="M0 0v158h205l-73 -72v384h141v-470h-273zM0 0q-10 0 -15 21t-5 58q0 36 5 57.5t15 21.5v-158z" />
    <glyph glyph-name="uni066E.medi" unicode="&#x66e;" horiz-adv-x="350" 
d="M273 0v158h77v-158h-77zM0 0v158h205l-73 -72v384h141v-470h-273zM0 0q-10 0 -15 21t-5 58q0 36 5 57.5t15 21.5v-158zM350 0v158q10 0 15 -21.5t5 -57.5q0 -37 -5 -58t-15 -21z" />
    <glyph glyph-name="uni066E.fina" unicode="&#x66e;" horiz-adv-x="914" 
d="M837 0v158h77v-158h-77zM224 0q-58 0 -96 22.5t-55.5 71t-17.5 125.5q0 50 8 100t23 95l135 -21q-13 -36 -19 -68.5t-6 -64.5t3 -56.5t10 -45.5h487v312h141v-470h-613zM914 0v158q10 0 15 -21.5t5 -57.5q0 -37 -5 -58t-15 -21z" />
    <glyph glyph-name="uniFE90" unicode="&#x628;" horiz-adv-x="914" arabic-form="final" 
d="M837 0v158h77v-158h-77zM224 0q-58 0 -96 22.5t-55.5 71t-17.5 125.5q0 50 8 100t23 95l135 -21q-13 -36 -19 -68.5t-6 -64.5t3 -56.5t10 -45.5h487v312h141v-470h-613zM914 0v158q10 0 15 -21.5t5 -57.5q0 -37 -5 -58t-15 -21zM454 -239q-14 0 -32.5 13.5t-32 32
t-13.5 32.5q0 15 13.5 33t31.5 31.5t33 13.5t33 -13.5t31.5 -31.5t13.5 -33q0 -14 -14 -32.5t-32 -32t-32 -13.5z" />
    <glyph glyph-name="uniFE92" unicode="&#x628;" horiz-adv-x="350" arabic-form="medial" 
d="M273 0v158h77v-158h-77zM0 0v158h205l-73 -72v384h141v-470h-273zM0 0q-10 0 -15 21t-5 58q0 36 5 57.5t15 21.5v-158zM350 0v158q10 0 15 -21.5t5 -57.5q0 -37 -5 -58t-15 -21zM203 -236q-14 0 -32.5 13.5t-32 32t-13.5 32.5q0 15 13.5 33t31.5 31.5t33 13.5t33 -13.5
t31.5 -31.5t13.5 -33q0 -14 -14 -32.5t-32 -32t-32 -13.5z" />
    <glyph glyph-name="uniFE91" unicode="&#x628;" horiz-adv-x="350" arabic-form="initial" 
d="M0 0v158h205l-73 -72v384h141v-470h-273zM0 0q-10 0 -15 21t-5 58q0 36 5 57.5t15 21.5v-158zM203 -236q-14 0 -32.5 13.5t-32 32t-13.5 32.5q0 15 13.5 33t31.5 31.5t33 13.5t33 -13.5t31.5 -31.5t13.5 -33q0 -14 -14 -32.5t-32 -32t-32 -13.5z" />
    <glyph glyph-name="uniFB57" unicode="&#x67e;" horiz-adv-x="914" arabic-form="final" 
d="M837 0v158h77v-158h-77zM224 0q-58 0 -96 22.5t-55.5 71t-17.5 125.5q0 50 8 100t23 95l135 -21q-13 -36 -19 -68.5t-6 -64.5t3 -56.5t10 -45.5h487v312h141v-470h-613zM914 0v158q10 0 15 -21.5t5 -57.5q0 -37 -5 -58t-15 -21zM455 -415q-14 0 -32.5 13.5t-32 32
t-13.5 32.5q0 15 13.5 33t31.5 31.5t33 13.5t33 -13.5t31.5 -31.5t13.5 -33q0 -14 -14 -32.5t-32 -32t-32 -13.5zM365 -238q-14 0 -32.5 13.5t-32 32t-13.5 32.5q0 15 13.5 33t31.5 31.5t33 13.5t33 -13.5t31.5 -31.5t13.5 -33q0 -14 -14 -32.5t-32 -32t-32 -13.5zM545 -238
q-14 0 -32.5 13.5t-32 32t-13.5 32.5q0 15 13.5 33t31.5 31.5t33 13.5t33 -13.5t31.5 -31.5t13.5 -33q0 -14 -14 -32.5t-32 -32t-32 -13.5z" />
    <glyph glyph-name="uniFB59" unicode="&#x67e;" horiz-adv-x="350" arabic-form="medial" 
d="M273 0v158h77v-158h-77zM0 0v158h205l-73 -72v384h141v-470h-273zM0 0q-10 0 -15 21t-5 58q0 36 5 57.5t15 21.5v-158zM350 0v158q10 0 15 -21.5t5 -57.5q0 -37 -5 -58t-15 -21zM203 -413q-14 0 -32.5 13.5t-32 32t-13.5 32.5q0 15 13.5 33t31.5 31.5t33 13.5t33 -13.5
t31.5 -31.5t13.5 -33q0 -14 -14 -32.5t-32 -32t-32 -13.5zM113 -236q-14 0 -32.5 13.5t-32 32t-13.5 32.5q0 15 13.5 33t31.5 31.5t33 13.5t33 -13.5t31.5 -31.5t13.5 -33q0 -14 -14 -32.5t-32 -32t-32 -13.5zM293 -236q-14 0 -32.5 13.5t-32 32t-13.5 32.5q0 15 13.5 33
t31.5 31.5t33 13.5t33 -13.5t31.5 -31.5t13.5 -33q0 -14 -14 -32.5t-32 -32t-32 -13.5z" />
    <glyph glyph-name="uniFB58" unicode="&#x67e;" horiz-adv-x="350" arabic-form="initial" 
d="M0 0v158h205l-73 -72v384h141v-470h-273zM0 0q-10 0 -15 21t-5 58q0 36 5 57.5t15 21.5v-158zM147 -411q-14 0 -32.5 13.5t-32 32t-13.5 32.5q0 15 13.5 33t31.5 31.5t33 13.5t33 -13.5t31.5 -31.5t13.5 -33q0 -14 -14 -32.5t-32 -32t-32 -13.5zM57 -234
q-14 0 -32.5 13.5t-32 32t-13.5 32.5q0 15 13.5 33t31.5 31.5t33 13.5t33 -13.5t31.5 -31.5t13.5 -33q0 -14 -14 -32.5t-32 -32t-32 -13.5zM237 -234q-14 0 -32.5 13.5t-32 32t-13.5 32.5q0 15 13.5 33t31.5 31.5t33 13.5t33 -13.5t31.5 -31.5t13.5 -33q0 -14 -14 -32.5
t-32 -32t-32 -13.5z" />
    <glyph glyph-name="uniFE96" unicode="&#x62a;" horiz-adv-x="914" arabic-form="final" 
d="M837 0v158h77v-158h-77zM224 0q-58 0 -96 22.5t-55.5 71t-17.5 125.5q0 50 8 100t23 95l135 -21q-13 -36 -19 -68.5t-6 -64.5t3 -56.5t10 -45.5h487v312h141v-470h-613zM914 0v158q10 0 15 -21.5t5 -57.5q0 -37 -5 -58t-15 -21zM365 486q-14 0 -32.5 13.5t-32 32
t-13.5 32.5q0 15 13.5 33t31.5 31.5t33 13.5t33 -13.5t31.5 -31.5t13.5 -33q0 -14 -14 -32.5t-32 -32t-32 -13.5zM545 486q-14 0 -32.5 13.5t-32 32t-13.5 32.5q0 15 13.5 33t31.5 31.5t33 13.5t33 -13.5t31.5 -31.5t13.5 -33q0 -14 -14 -32.5t-32 -32t-32 -13.5z" />
    <glyph glyph-name="uniFE98" unicode="&#x62a;" horiz-adv-x="350" arabic-form="medial" 
d="M273 0v158h77v-158h-77zM0 0v158h205l-73 -72v384h141v-470h-273zM0 0q-10 0 -15 21t-5 58q0 36 5 57.5t15 21.5v-158zM350 0v158q10 0 15 -21.5t5 -57.5q0 -37 -5 -58t-15 -21zM113 586q-14 0 -32.5 13.5t-32 32t-13.5 32.5q0 15 13.5 33t31.5 31.5t33 13.5t33 -13.5
t31.5 -31.5t13.5 -33q0 -14 -14 -32.5t-32 -32t-32 -13.5zM293 586q-14 0 -32.5 13.5t-32 32t-13.5 32.5q0 15 13.5 33t31.5 31.5t33 13.5t33 -13.5t31.5 -31.5t13.5 -33q0 -14 -14 -32.5t-32 -32t-32 -13.5z" />
    <glyph glyph-name="uniFE97" unicode="&#x62a;" horiz-adv-x="350" arabic-form="initial" 
d="M0 0v158h205l-73 -72v384h141v-470h-273zM0 0q-10 0 -15 21t-5 58q0 36 5 57.5t15 21.5v-158zM113 586q-14 0 -32.5 13.5t-32 32t-13.5 32.5q0 15 13.5 33t31.5 31.5t33 13.5t33 -13.5t31.5 -31.5t13.5 -33q0 -14 -14 -32.5t-32 -32t-32 -13.5zM293 586q-14 0 -32.5 13.5
t-32 32t-13.5 32.5q0 15 13.5 33t31.5 31.5t33 13.5t33 -13.5t31.5 -31.5t13.5 -33q0 -14 -14 -32.5t-32 -32t-32 -13.5z" />
    <glyph glyph-name="uniFE9A" unicode="&#x62b;" horiz-adv-x="914" arabic-form="final" 
d="M837 0v158h77v-158h-77zM224 0q-58 0 -96 22.5t-55.5 71t-17.5 125.5q0 50 8 100t23 95l135 -21q-13 -36 -19 -68.5t-6 -64.5t3 -56.5t10 -45.5h487v312h141v-470h-613zM914 0v158q10 0 15 -21.5t5 -57.5q0 -37 -5 -58t-15 -21zM365 486q-14 0 -32.5 13.5t-32 32
t-13.5 32.5q0 15 13.5 33t31.5 31.5t33 13.5t33 -13.5t31.5 -31.5t13.5 -33q0 -14 -14 -32.5t-32 -32t-32 -13.5zM545 486q-14 0 -32.5 13.5t-32 32t-13.5 32.5q0 15 13.5 33t31.5 31.5t33 13.5t33 -13.5t31.5 -31.5t13.5 -33q0 -14 -14 -32.5t-32 -32t-32 -13.5zM455 678
q-14 0 -32.5 13.5t-32 32t-13.5 32.5q0 15 13.5 33t31.5 31.5t33 13.5t33 -13.5t31.5 -31.5t13.5 -33q0 -14 -14 -32.5t-32 -32t-32 -13.5z" />
    <glyph glyph-name="uniFE9C" unicode="&#x62b;" horiz-adv-x="350" arabic-form="medial" 
d="M273 0v158h77v-158h-77zM0 0v158h205l-73 -72v384h141v-470h-273zM0 0q-10 0 -15 21t-5 58q0 36 5 57.5t15 21.5v-158zM350 0v158q10 0 15 -21.5t5 -57.5q0 -37 -5 -58t-15 -21zM113 586q-14 0 -32.5 13.5t-32 32t-13.5 32.5q0 15 13.5 33t31.5 31.5t33 13.5t33 -13.5
t31.5 -31.5t13.5 -33q0 -14 -14 -32.5t-32 -32t-32 -13.5zM293 586q-14 0 -32.5 13.5t-32 32t-13.5 32.5q0 15 13.5 33t31.5 31.5t33 13.5t33 -13.5t31.5 -31.5t13.5 -33q0 -14 -14 -32.5t-32 -32t-32 -13.5zM203 778q-14 0 -32.5 13.5t-32 32t-13.5 32.5q0 15 13.5 33
t31.5 31.5t33 13.5t33 -13.5t31.5 -31.5t13.5 -33q0 -14 -14 -32.5t-32 -32t-32 -13.5z" />
    <glyph glyph-name="uniFE9B" unicode="&#x62b;" horiz-adv-x="350" arabic-form="initial" 
d="M0 0v158h205l-73 -72v384h141v-470h-273zM0 0q-10 0 -15 21t-5 58q0 36 5 57.5t15 21.5v-158zM113 586q-14 0 -32.5 13.5t-32 32t-13.5 32.5q0 15 13.5 33t31.5 31.5t33 13.5t33 -13.5t31.5 -31.5t13.5 -33q0 -14 -14 -32.5t-32 -32t-32 -13.5zM293 586q-14 0 -32.5 13.5
t-32 32t-13.5 32.5q0 15 13.5 33t31.5 31.5t33 13.5t33 -13.5t31.5 -31.5t13.5 -33q0 -14 -14 -32.5t-32 -32t-32 -13.5zM203 778q-14 0 -32.5 13.5t-32 32t-13.5 32.5q0 15 13.5 33t31.5 31.5t33 13.5t33 -13.5t31.5 -31.5t13.5 -33q0 -14 -14 -32.5t-32 -32t-32 -13.5z
" />
    <glyph glyph-name="uniFB67" unicode="&#x679;" horiz-adv-x="914" arabic-form="final" 
d="M837 0v158h77v-158h-77zM224 0q-58 0 -96 22.5t-55.5 71t-17.5 125.5q0 50 8 100t23 95l135 -21q-13 -36 -19 -68.5t-6 -64.5t3 -56.5t10 -45.5h487v312h141v-470h-613zM914 0v158q10 0 15 -21.5t5 -57.5q0 -37 -5 -58t-15 -21zM306 542v221h105v-112q14 24 45.5 36.5
t66.5 12.5q43 0 65.5 -19t22.5 -67v-72h-105v79q-7 3 -16 5t-20 2q-32 0 -45.5 -23t-13.5 -63h-105zM276 490v66h335v-66h-335z" />
    <glyph glyph-name="uniFB69" unicode="&#x679;" horiz-adv-x="350" arabic-form="medial" 
d="M273 0v158h77v-158h-77zM0 0v158h205l-73 -72v384h141v-470h-273zM0 0q-10 0 -15 21t-5 58q0 36 5 57.5t15 21.5v-158zM350 0v158q10 0 15 -21.5t5 -57.5q0 -37 -5 -58t-15 -21zM55 642v221h105v-112q14 24 45.5 36.5t66.5 12.5q43 0 65.5 -19t22.5 -67v-72h-105v79
q-7 3 -16 5t-20 2q-32 0 -45.5 -23t-13.5 -63h-105zM25 590v66h335v-66h-335z" />
    <glyph glyph-name="uniFB68" unicode="&#x679;" horiz-adv-x="350" arabic-form="initial" 
d="M0 0v158h205l-73 -72v384h141v-470h-273zM0 0q-10 0 -15 21t-5 58q0 36 5 57.5t15 21.5v-158zM55 642v221h105v-112q14 24 45.5 36.5t66.5 12.5q43 0 65.5 -19t22.5 -67v-72h-105v79q-7 3 -16 5t-20 2q-32 0 -45.5 -23t-13.5 -63h-105zM25 590v66h335v-66h-335z" />
    <glyph glyph-name="uniFE9E" unicode="&#x62c;" horiz-adv-x="610" arabic-form="final" 
d="M526 0q-32 0 -51.5 13.5t-30.5 42.5l-60 156q-15 41 -39.5 65.5t-60.5 36t-89 11.5q-28 0 -58 -1.5t-62 -5.5l-21 156q44 5 78 7.5t62 2.5q86 0 146.5 -22t102 -69t67.5 -123l41 -112h59v-158h-84zM265 -292q-61 0 -104 14t-69.5 44t-38.5 78.5t-12 114.5q0 100 44 163
t135.5 95.5t232.5 37.5l41 -123q-102 -3 -169.5 -16.5t-100.5 -38.5t-33 -64v-140q22 -3 49.5 -5t61.5 -2q48 0 92 5.5t94 18.5l17 -151q-50 -16 -112 -23.5t-128 -7.5zM610 0v158q10 0 15 -21.5t5 -57.5q0 -37 -5 -58t-15 -21zM347.771 -26.0283
q-14.9795 0 -34.7754 14.4453q-19.7949 14.4453 -34.2402 34.2402q-14.4443 19.7949 -14.4443 34.7754q0 16.0498 14.4443 35.3105q14.4453 19.2598 33.7061 33.7051q19.2598 14.4453 35.3096 14.4453q16.0508 0 35.3105 -14.4453t33.7051 -33.7051
q14.4453 -19.2607 14.4453 -35.3105q0 -14.9805 -14.9805 -34.7754q-14.9795 -19.7949 -34.2402 -34.2402q-19.2598 -14.4453 -34.2402 -14.4453z" />
    <glyph glyph-name="uniFEA0" unicode="&#x62c;" horiz-adv-x="608" arabic-form="medial" 
d="M526 0q-32 0 -51.5 13.5t-30.5 42.5l-60 156q-15 39 -38.5 64.5t-59.5 37t-91 11.5q-26 0 -56 -1t-64 -6l-21 156q39 4 74 7t66 3q88 0 148.5 -22.5t101 -69.5t66.5 -122l41 -112h57v-158h-82zM0 0v158h187q41 0 71 12t50.5 32.5t34.5 46.5t23 56l131 -44
q-21 -71 -53 -121t-75 -80.5t-93 -45t-105 -14.5h-171zM608 0v158q10 0 15 -21.5t5 -57.5q0 -37 -5 -58t-15 -21zM0 0q-10 0 -15 21t-5 58q0 36 5 57.5t15 21.5v-158zM306 -236q-14 0 -32.5 13.5t-32 32t-13.5 32.5q0 15 13.5 33t31.5 31.5t33 13.5t33 -13.5t31.5 -31.5
t13.5 -33q0 -14 -14 -32.5t-32 -32t-32 -13.5z" />
    <glyph glyph-name="uniFE9F" unicode="&#x62c;" horiz-adv-x="582" arabic-form="initial" 
d="M466 156q-32 0 -51.5 13.5t-30.5 42.5q-14 40 -37.5 65t-60 36.5t-91.5 11.5q-26 0 -56 -1t-64 -6l-21 156q39 4 74 7t66 3q83 0 139.5 -18t94.5 -55t63 -96h91v-159h-116zM0 0v158h157q47 0 82.5 12t59.5 32.5t40.5 46.5t26.5 56l131 -44q-22 -71 -57.5 -121t-82 -80.5
t-100.5 -45t-114 -14.5h-143zM0 0q-10 0 -15 21t-5 58q0 36 5 57.5t15 21.5v-158zM283 -236q-14 0 -32.5 13.5t-32 32t-13.5 32.5q0 15 13.5 33t31.5 31.5t33 13.5t33 -13.5t31.5 -31.5t13.5 -33q0 -14 -14 -32.5t-32 -32t-32 -13.5z" />
    <glyph glyph-name="uniFB7B" unicode="&#x686;" horiz-adv-x="748" arabic-form="final" 
d="M233 -290q-74 0 -115.5 25t-57.5 80t-16 144q0 101 48.5 162.5t155 89.5t278.5 28l56 -123q-136 0 -224 -10.5t-130 -33t-42 -59.5v-140q10 -2 22 -3.5t26 -1.5q18 0 38 2t37 6l17 -151q-26 -7 -49 -11t-44 -4zM664 0q-32 0 -51.5 13.5t-30.5 42.5l-60 156
q-15 41 -39.5 65.5t-60.5 36t-89 11.5q-28 0 -57.5 -1.5t-62.5 -5.5l-21 156q43 5 77.5 7.5t62.5 2.5q86 0 146.5 -22t102 -69t67.5 -123l41 -112h59l20 -79l-20 -79h-84zM427 -238q-12 0 -27 11.5t-26 26.5t-11 26q0 13 11 28t26 26t27 11q13 0 28 -11t26 -26t11 -28
q0 -11 -11.5 -26t-26.5 -26.5t-27 -11.5zM353 -90q-13 0 -28 11t-26 26.5t-11 26.5q0 13 11 28t26 25.5t28 11.5q12 -1 27 -11.5t26 -25.5t11 -28q0 -11 -11.5 -26t-26.5 -26.5t-26 -11.5zM503 -90q-13 0 -28 11t-26 26.5t-11 26.5q0 13 11 28t26 25.5t28 11.5
q12 -1 27 -11.5t26 -25.5t11 -28q0 -11 -11.5 -26t-26.5 -26.5t-26 -11.5z" />
    <glyph glyph-name="uniFB7D" unicode="&#x686;" horiz-adv-x="608" arabic-form="medial" 
d="M526 0q-32 0 -51.5 13.5t-30.5 42.5l-60 156q-15 39 -38.5 64.5t-59.5 37t-91 11.5q-26 0 -56 -1t-64 -6l-21 156q39 4 74 7t66 3q88 0 148.5 -22.5t101 -69.5t66.5 -122l41 -112h57v-158h-82zM0 0v158h187q41 0 71 12t50.5 32.5t34.5 46.5t23 56l131 -44
q-21 -71 -53 -121t-75 -80.5t-93 -45t-105 -14.5h-171zM608 0v158q10 0 15 -21.5t5 -57.5q0 -37 -5 -58t-15 -21zM0 0q-10 0 -15 21t-5 58q0 36 5 57.5t15 21.5v-158zM306 -413q-14 0 -32.5 13.5t-32 32t-13.5 32.5q0 15 13.5 33t31.5 31.5t33 13.5t33 -13.5t31.5 -31.5
t13.5 -33q0 -14 -14 -32.5t-32 -32t-32 -13.5zM216 -236q-14 0 -32.5 13.5t-32 32t-13.5 32.5q0 15 13.5 33t31.5 31.5t33 13.5t33 -13.5t31.5 -31.5t13.5 -33q0 -14 -14 -32.5t-32 -32t-32 -13.5zM396 -236q-14 0 -32.5 13.5t-32 32t-13.5 32.5q0 15 13.5 33t31.5 31.5
t33 13.5t33 -13.5t31.5 -31.5t13.5 -33q0 -14 -14 -32.5t-32 -32t-32 -13.5z" />
    <glyph glyph-name="uniFB7C" unicode="&#x686;" horiz-adv-x="582" arabic-form="initial" 
d="M466 156q-32 0 -51.5 13.5t-30.5 42.5q-14 40 -37.5 65t-60 36.5t-91.5 11.5q-26 0 -56 -1t-64 -6l-21 156q39 4 74 7t66 3q83 0 139.5 -18t94.5 -55t63 -96h91v-159h-116zM0 0v158h157q47 0 82.5 12t59.5 32.5t40.5 46.5t26.5 56l131 -44q-22 -71 -57.5 -121t-82 -80.5
t-100.5 -45t-114 -14.5h-143zM0 0q-10 0 -15 21t-5 58q0 36 5 57.5t15 21.5v-158zM284 -413q-14 0 -32.5 13.5t-32 32t-13.5 32.5q0 15 13.5 33t31.5 31.5t33 13.5t33 -13.5t31.5 -31.5t13.5 -33q0 -14 -14 -32.5t-32 -32t-32 -13.5zM194 -236q-14 0 -32.5 13.5t-32 32
t-13.5 32.5q0 15 13.5 33t31.5 31.5t33 13.5t33 -13.5t31.5 -31.5t13.5 -33q0 -14 -14 -32.5t-32 -32t-32 -13.5zM374 -236q-14 0 -32.5 13.5t-32 32t-13.5 32.5q0 15 13.5 33t31.5 31.5t33 13.5t33 -13.5t31.5 -31.5t13.5 -33q0 -14 -14 -32.5t-32 -32t-32 -13.5z" />
    <glyph glyph-name="uniFEA2" unicode="&#x62d;" horiz-adv-x="610" arabic-form="final" 
d="M526 0q-32 0 -51.5 13.5t-30.5 42.5l-60 156q-15 41 -39.5 65.5t-60.5 36t-89 11.5q-28 0 -58 -1.5t-62 -5.5l-21 156q44 5 78 7.5t62 2.5q86 0 146.5 -22t102 -69t67.5 -123l41 -112h59v-158h-84zM265 -292q-61 0 -104 14t-69.5 44t-38.5 78.5t-12 114.5q0 100 44 163
t135.5 95.5t232.5 37.5l41 -123q-102 -3 -169.5 -16.5t-100.5 -38.5t-33 -64v-140q22 -3 49.5 -5t61.5 -2q48 0 92 5.5t94 18.5l17 -151q-50 -16 -112 -23.5t-128 -7.5zM610 0v158q10 0 15 -21.5t5 -57.5q0 -37 -5 -58t-15 -21z" />
    <glyph glyph-name="uniFEA4" unicode="&#x62d;" horiz-adv-x="608" arabic-form="medial" 
d="M526 0q-32 0 -51.5 13.5t-30.5 42.5l-60 156q-15 39 -38.5 64.5t-59.5 37t-91 11.5q-26 0 -56 -1t-64 -6l-21 156q39 4 74 7t66 3q88 0 148.5 -22.5t101 -69.5t66.5 -122l41 -112h57v-158h-82zM0 0v158h187q41 0 71 12t50.5 32.5t34.5 46.5t23 56l131 -44
q-21 -71 -53 -121t-75 -80.5t-93 -45t-105 -14.5h-171zM608 0v158q10 0 15 -21.5t5 -57.5q0 -37 -5 -58t-15 -21zM0 0q-10 0 -15 21t-5 58q0 36 5 57.5t15 21.5v-158z" />
    <glyph glyph-name="uniFEA3" unicode="&#x62d;" horiz-adv-x="582" arabic-form="initial" 
d="M466 156q-32 0 -51.5 13.5t-30.5 42.5q-14 40 -37.5 65t-60 36.5t-91.5 11.5q-26 0 -56 -1t-64 -6l-21 156q39 4 74 7t66 3q83 0 139.5 -18t94.5 -55t63 -96h91v-159h-116zM0 0v158h157q47 0 82.5 12t59.5 32.5t40.5 46.5t26.5 56l131 -44q-22 -71 -57.5 -121t-82 -80.5
t-100.5 -45t-114 -14.5h-143zM0 0q-10 0 -15 21t-5 58q0 36 5 57.5t15 21.5v-158z" />
    <glyph glyph-name="uniFEA6" unicode="&#x62e;" horiz-adv-x="610" arabic-form="final" 
d="M526 0q-32 0 -51.5 13.5t-30.5 42.5l-60 156q-15 41 -39.5 65.5t-60.5 36t-89 11.5q-28 0 -58 -1.5t-62 -5.5l-21 156q44 5 78 7.5t62 2.5q86 0 146.5 -22t102 -69t67.5 -123l41 -112h59v-158h-84zM265 -292q-61 0 -104 14t-69.5 44t-38.5 78.5t-12 114.5q0 100 44 163
t135.5 95.5t232.5 37.5l41 -123q-102 -3 -169.5 -16.5t-100.5 -38.5t-33 -64v-140q22 -3 49.5 -5t61.5 -2q48 0 92 5.5t94 18.5l17 -151q-50 -16 -112 -23.5t-128 -7.5zM610 0v158q10 0 15 -21.5t5 -57.5q0 -37 -5 -58t-15 -21zM294 586q-14 0 -32.5 13.5t-32 32t-13.5 32.5
q0 15 13.5 33t31.5 31.5t33 13.5t33 -13.5t31.5 -31.5t13.5 -33q0 -14 -14 -32.5t-32 -32t-32 -13.5z" />
    <glyph glyph-name="uniFEA8" unicode="&#x62e;" horiz-adv-x="608" arabic-form="medial" 
d="M526 0q-32 0 -51.5 13.5t-30.5 42.5l-60 156q-15 39 -38.5 64.5t-59.5 37t-91 11.5q-26 0 -56 -1t-64 -6l-21 156q39 4 74 7t66 3q88 0 148.5 -22.5t101 -69.5t66.5 -122l41 -112h57v-158h-82zM0 0v158h187q41 0 71 12t50.5 32.5t34.5 46.5t23 56l131 -44
q-21 -71 -53 -121t-75 -80.5t-93 -45t-105 -14.5h-171zM608 0v158q10 0 15 -21.5t5 -57.5q0 -37 -5 -58t-15 -21zM0 0q-10 0 -15 21t-5 58q0 36 5 57.5t15 21.5v-158zM277 586q-14 0 -32.5 13.5t-32 32t-13.5 32.5q0 15 13.5 33t31.5 31.5t33 13.5t33 -13.5t31.5 -31.5
t13.5 -33q0 -14 -14 -32.5t-32 -32t-32 -13.5z" />
    <glyph glyph-name="uniFEA7" unicode="&#x62e;" horiz-adv-x="582" arabic-form="initial" 
d="M466 156q-32 0 -51.5 13.5t-30.5 42.5q-14 40 -37.5 65t-60 36.5t-91.5 11.5q-26 0 -56 -1t-64 -6l-21 156q39 4 74 7t66 3q83 0 139.5 -18t94.5 -55t63 -96h91v-159h-116zM0 0v158h157q47 0 82.5 12t59.5 32.5t40.5 46.5t26.5 56l131 -44q-22 -71 -57.5 -121t-82 -80.5
t-100.5 -45t-114 -14.5h-143zM0 0q-10 0 -15 21t-5 58q0 36 5 57.5t15 21.5v-158zM277 586q-14 0 -32.5 13.5t-32 32t-13.5 32.5q0 15 13.5 33t31.5 31.5t33 13.5t33 -13.5t31.5 -31.5t13.5 -33q0 -14 -14 -32.5t-32 -32t-32 -13.5z" />
    <glyph glyph-name="uniFEAA" unicode="&#x62f;" horiz-adv-x="529" arabic-form="final" 
d="M449 0v158h80v-158h-80zM20 0v158h295q-12 53 -24 87t-27 53.5t-36.5 27t-51.5 7.5q-27 0 -55.5 -3.5t-51.5 -9.5l-39 154q30 8 69.5 12.5t76.5 4.5q56 0 96.5 -9t70.5 -31.5t54 -64t44.5 -106t42.5 -157.5v-123h-464zM529 0v158q10 0 15 -21.5t5 -57.5q0 -37 -5 -58
t-15 -21z" />
    <glyph glyph-name="uniFEAC" unicode="&#x630;" horiz-adv-x="529" arabic-form="final" 
d="M449 0v158h80v-158h-80zM20 0v158h295q-12 53 -24 87t-27 53.5t-36.5 27t-51.5 7.5q-27 0 -55.5 -3.5t-51.5 -9.5l-39 154q30 8 69.5 12.5t76.5 4.5q56 0 96.5 -9t70.5 -31.5t54 -64t44.5 -106t42.5 -157.5v-123h-464zM529 0v158q10 0 15 -21.5t5 -57.5q0 -37 -5 -58
t-15 -21zM206 586q-14 0 -32.5 13.5t-32 32t-13.5 32.5q0 15 13.5 33t31.5 31.5t33 13.5t33 -13.5t31.5 -31.5t13.5 -33q0 -14 -14 -32.5t-32 -32t-32 -13.5z" />
    <glyph glyph-name="uniFB89" unicode="&#x688;" horiz-adv-x="529" arabic-form="final" 
d="M449 0v158h80v-158h-80zM20 0v158h295q-12 53 -24 87t-27 53.5t-36.5 27t-51.5 7.5q-27 0 -55.5 -3.5t-51.5 -9.5l-39 154q30 8 69.5 12.5t76.5 4.5q56 0 96.5 -9t70.5 -31.5t54 -64t44.5 -106t42.5 -157.5v-123h-464zM529 0v158q10 0 15 -21.5t5 -57.5q0 -37 -5 -58
t-15 -21zM58 642v221h105v-112q14 24 45.5 36.5t66.5 12.5q43 0 65.5 -19t22.5 -67v-72h-105v79q-7 3 -16 5t-20 2q-32 0 -45.5 -23t-13.5 -63h-105zM28 590v66h335v-66h-335z" />
    <glyph glyph-name="uniFEAE" unicode="&#x631;" horiz-adv-x="333" arabic-form="final" 
d="M257 0v158h76v-158h-76zM72 -279l-52 126q39 18 60 37.5t29 51.5t8 85v449h140v-449q0 -80 -18.5 -136.5t-59 -96t-107.5 -67.5zM333 0v158q10 0 15 -21.5t5 -57.5q0 -37 -5 -58t-15 -21z" />
    <glyph glyph-name="uniFEB0" unicode="&#x632;" horiz-adv-x="333" arabic-form="final" 
d="M257 0v158h76v-158h-76zM72 -279l-52 126q39 18 60 37.5t29 51.5t8 85v449h140v-449q0 -80 -18.5 -136.5t-59 -96t-107.5 -67.5zM333 0v158q10 0 15 -21.5t5 -57.5q0 -37 -5 -58t-15 -21zM186 586q-14 0 -32.5 13.5t-32 32t-13.5 32.5q0 15 13.5 33t31.5 31.5t33 13.5
t33 -13.5t31.5 -31.5t13.5 -33q0 -14 -14 -32.5t-32 -32t-32 -13.5z" />
    <glyph glyph-name="uniFB8D" unicode="&#x691;" horiz-adv-x="333" arabic-form="final" 
d="M257 0v158h76v-158h-76zM72 -279l-52 126q39 18 60 37.5t29 51.5t8 85v449h140v-449q0 -80 -18.5 -136.5t-59 -96t-107.5 -67.5zM333 0v158q10 0 15 -21.5t5 -57.5q0 -37 -5 -58t-15 -21zM38 642v221h105v-112q14 24 45.5 36.5t66.5 12.5q43 0 65.5 -19t22.5 -67v-72
h-105v79q-7 3 -16 5t-20 2q-32 0 -45.5 -23t-13.5 -63h-105zM8 590v66h335v-66h-335z" />
    <glyph glyph-name="uniFB8B" unicode="&#x698;" horiz-adv-x="333" arabic-form="final" 
d="M257 0v158h76v-158h-76zM72 -279l-52 126q39 18 60 37.5t29 51.5t8 85v449h140v-449q0 -80 -18.5 -136.5t-59 -96t-107.5 -67.5zM333 0v158q10 0 15 -21.5t5 -57.5q0 -37 -5 -58t-15 -21zM97 586q-14 0 -32.5 13.5t-32 32t-13.5 32.5q0 15 13.5 33t31.5 31.5t33 13.5
t33 -13.5t31.5 -31.5t13.5 -33q0 -14 -14 -32.5t-32 -32t-32 -13.5zM277 586q-14 0 -32.5 13.5t-32 32t-13.5 32.5q0 15 13.5 33t31.5 31.5t33 13.5t33 -13.5t31.5 -31.5t13.5 -33q0 -14 -14 -32.5t-32 -32t-32 -13.5zM187 778q-14 0 -32.5 13.5t-32 32t-13.5 32.5
q0 15 13.5 33t31.5 31.5t33 13.5t33 -13.5t31.5 -31.5t13.5 -33q0 -14 -14 -32.5t-32 -32t-32 -13.5z" />
    <glyph glyph-name="uniFEB2" unicode="&#x633;" horiz-adv-x="1362" arabic-form="final" 
d="M1039 0l161 158h162v-158h-323zM327 -240q-80 0 -132 11t-81 38t-40.5 74t-11.5 120q0 37 3 73.5t10 72t18 68.5l139 -22q-12 -43 -20.5 -84t-8.5 -81q0 -35 2 -61t8 -51h143q53 0 78.5 10.5t25.5 42.5v409h141v-382q0 -70 -10.5 -116.5t-39.5 -73t-83 -37.5t-141 -11z
M601 0v158h126q37 0 56 10.5t19 42.5v169h141v-139q0 -71 -10 -118.5t-37.5 -74t-78.5 -37.5t-134 -11h-82zM1039 0q-73 0 -119.5 11t-72 37.5t-35.5 74t-10 118.5v139h141v-169q0 -32 19 -42.5t56 -10.5h116q6 20 8 44t2 55q0 47 -7.5 94t-20.5 97l140 21q10 -30 16.5 -64
t9.5 -69.5t3 -69.5q0 -105 -26.5 -162.5t-81 -80.5t-138.5 -23zM1362 0v158q10 0 15 -21.5t5 -57.5q0 -37 -5 -58t-15 -21z" />
    <glyph glyph-name="uniFEB4" unicode="&#x633;" horiz-adv-x="1034" arabic-form="medial" 
d="M704 0l168 158h162v-158h-330zM711 0q-73 0 -119.5 11t-72 37.5t-35.5 74t-10 118.5v139h141v-169q0 -32 19 -42.5t56 -10.5h116q6 20 8 44t2 55q0 47 -8 94t-20 97l139 21q11 -30 17.5 -64t9.5 -69.5t3 -69.5q0 -105 -26.5 -162.5t-81 -80.5t-138.5 -23zM0 0v158h132
v222h141v-380h-273zM273 0v158h126q37 0 56 10.5t19 42.5v169h141v-139q0 -71 -10.5 -118.5t-37.5 -74t-78.5 -37.5t-133.5 -11h-82zM0 0q-10 0 -15 21t-5 58q0 36 5 57.5t15 21.5v-158zM1034 0v158q10 0 15 -21.5t5 -57.5q0 -37 -5 -58t-15 -21z" />
    <glyph glyph-name="uniFEB3" unicode="&#x633;" horiz-adv-x="1028" arabic-form="initial" 
d="M711 0q-73 0 -119.5 11t-72 37.5t-35.5 74t-10 118.5v139h141v-169q0 -32 19 -42.5t56 -10.5h116q6 20 8 44t2 55q0 47 -8 94t-20 97l139 21q11 -30 17.5 -64t9.5 -69.5t3 -69.5q0 -105 -26.5 -162.5t-81 -80.5t-138.5 -23zM0 0v158h132v222h141v-380h-273zM273 0v158
h126q37 0 56 10.5t19 42.5v169h141v-139q0 -71 -10.5 -118.5t-37.5 -74t-78.5 -37.5t-133.5 -11h-82zM0 0q-10 0 -15 21t-5 58q0 36 5 57.5t15 21.5v-158z" />
    <glyph glyph-name="uniFEB6" unicode="&#x634;" horiz-adv-x="1362" arabic-form="final" 
d="M1039 0l161 158h162v-158h-323zM327 -240q-80 0 -132 11t-81 38t-40.5 74t-11.5 120q0 37 3 73.5t10 72t18 68.5l139 -22q-12 -43 -20.5 -84t-8.5 -81q0 -35 2 -61t8 -51h143q53 0 78.5 10.5t25.5 42.5v409h141v-382q0 -70 -10.5 -116.5t-39.5 -73t-83 -37.5t-141 -11z
M601 0v158h126q37 0 56 10.5t19 42.5v169h141v-139q0 -71 -10 -118.5t-37.5 -74t-78.5 -37.5t-134 -11h-82zM1039 0q-73 0 -119.5 11t-72 37.5t-35.5 74t-10 118.5v139h141v-169q0 -32 19 -42.5t56 -10.5h116q6 20 8 44t2 55q0 47 -7.5 94t-20.5 97l140 21q10 -30 16.5 -64
t9.5 -69.5t3 -69.5q0 -105 -26.5 -162.5t-81 -80.5t-138.5 -23zM1362 0v158q10 0 15 -21.5t5 -57.5q0 -37 -5 -58t-15 -21zM786 536q-14 0 -32.5 13.5t-32 32t-13.5 32.5q0 15 13.5 33t31.5 31.5t33 13.5t33 -13.5t31.5 -31.5t13.5 -33q0 -14 -14 -32.5t-32 -32t-32 -13.5z
M966 536q-14 0 -32.5 13.5t-32 32t-13.5 32.5q0 15 13.5 33t31.5 31.5t33 13.5t33 -13.5t31.5 -31.5t13.5 -33q0 -14 -14 -32.5t-32 -32t-32 -13.5zM876 728q-14 0 -32.5 13.5t-32 32t-13.5 32.5q0 15 13.5 33t31.5 31.5t33 13.5t33 -13.5t31.5 -31.5t13.5 -33
q0 -14 -14 -32.5t-32 -32t-32 -13.5z" />
    <glyph glyph-name="uniFEB8" unicode="&#x634;" horiz-adv-x="1034" arabic-form="medial" 
d="M704 0l168 158h162v-158h-330zM711 0q-73 0 -119.5 11t-72 37.5t-35.5 74t-10 118.5v139h141v-169q0 -32 19 -42.5t56 -10.5h116q6 20 8 44t2 55q0 47 -8 94t-20 97l139 21q11 -30 17.5 -64t9.5 -69.5t3 -69.5q0 -105 -26.5 -162.5t-81 -80.5t-138.5 -23zM0 0v158h132
v222h141v-380h-273zM273 0v158h126q37 0 56 10.5t19 42.5v169h141v-139q0 -71 -10.5 -118.5t-37.5 -74t-78.5 -37.5t-133.5 -11h-82zM0 0q-10 0 -15 21t-5 58q0 36 5 57.5t15 21.5v-158zM1034 0v158q10 0 15 -21.5t5 -57.5q0 -37 -5 -58t-15 -21zM457 536q-14 0 -32.5 13.5
t-32 32t-13.5 32.5q0 15 13.5 33t31.5 31.5t33 13.5t33 -13.5t31.5 -31.5t13.5 -33q0 -14 -14 -32.5t-32 -32t-32 -13.5zM637 536q-14 0 -32.5 13.5t-32 32t-13.5 32.5q0 15 13.5 33t31.5 31.5t33 13.5t33 -13.5t31.5 -31.5t13.5 -33q0 -14 -14 -32.5t-32 -32t-32 -13.5z
M547 728q-14 0 -32.5 13.5t-32 32t-13.5 32.5q0 15 13.5 33t31.5 31.5t33 13.5t33 -13.5t31.5 -31.5t13.5 -33q0 -14 -14 -32.5t-32 -32t-32 -13.5z" />
    <glyph glyph-name="uniFEB7" unicode="&#x634;" horiz-adv-x="1028" arabic-form="initial" 
d="M711 0q-73 0 -119.5 11t-72 37.5t-35.5 74t-10 118.5v139h141v-169q0 -32 19 -42.5t56 -10.5h116q6 20 8 44t2 55q0 47 -8 94t-20 97l139 21q11 -30 17.5 -64t9.5 -69.5t3 -69.5q0 -105 -26.5 -162.5t-81 -80.5t-138.5 -23zM0 0v158h132v222h141v-380h-273zM273 0v158
h126q37 0 56 10.5t19 42.5v169h141v-139q0 -71 -10.5 -118.5t-37.5 -74t-78.5 -37.5t-133.5 -11h-82zM0 0q-10 0 -15 21t-5 58q0 36 5 57.5t15 21.5v-158zM458 536q-14 0 -32.5 13.5t-32 32t-13.5 32.5q0 15 13.5 33t31.5 31.5t33 13.5t33 -13.5t31.5 -31.5t13.5 -33
q0 -14 -14 -32.5t-32 -32t-32 -13.5zM638 536q-14 0 -32.5 13.5t-32 32t-13.5 32.5q0 15 13.5 33t31.5 31.5t33 13.5t33 -13.5t31.5 -31.5t13.5 -33q0 -14 -14 -32.5t-32 -32t-32 -13.5zM548 728q-14 0 -32.5 13.5t-32 32t-13.5 32.5q0 15 13.5 33t31.5 31.5t33 13.5
t33 -13.5t31.5 -31.5t13.5 -33q0 -14 -14 -32.5t-32 -32t-32 -13.5z" />
    <glyph glyph-name="uniFEBA" unicode="&#x635;" horiz-adv-x="1171" arabic-form="final" 
d="M1093 0v158h78v-158h-78zM952 0v311q-34 11 -118 11q-116 0 -174.5 -54t-58.5 -161h-141v363h141v-140q21 45 64 79t102 52.5t127 18.5q77 0 120.5 -15.5t61 -53.5t17.5 -104v-307h-141zM327 -240q-80 0 -132 11t-81 38t-40.5 74t-11.5 120q0 37 3 73.5t10 72t18 68.5
l139 -22q-12 -43 -20.5 -84t-8.5 -81q0 -35 2 -61t8 -51h143q53 0 78.5 10.5t25.5 42.5v136h141v-109q0 -70 -10.5 -116.5t-39.5 -73t-83 -37.5t-141 -11zM540 0v158h486l67 -158h-553zM1171 0v158q10 0 15 -21.5t5 -57.5q0 -37 -5 -58t-15 -21z" />
    <glyph glyph-name="uniFEBC" unicode="&#x635;" horiz-adv-x="842" arabic-form="medial" 
d="M765 0v158h77v-158h-77zM624 0v311q-35 11 -118 11q-116 0 -174.5 -54t-58.5 -161h-141v363h141v-140q21 45 64 79t102 52.5t127 18.5q77 0 120 -15.5t61 -53.5t18 -104v-307h-141zM0 0v158h765v-158h-765zM0 0q-10 0 -15 21t-5 58q0 36 5 57.5t15 21.5v-158zM842 0v158
q10 0 15 -21.5t5 -57.5q0 -37 -5 -58t-15 -21z" />
    <glyph glyph-name="uniFEBB" unicode="&#x635;" horiz-adv-x="841" arabic-form="initial" 
d="M624 0v311q-35 11 -118 11q-116 0 -174.5 -54t-58.5 -161h-141v363h141v-140q21 45 64 79t102 52.5t127 18.5q77 0 120 -15.5t61 -53.5t18 -104v-307h-141zM0 0v158h765v-158h-765zM0 0q-10 0 -15 21t-5 58q0 36 5 57.5t15 21.5v-158z" />
    <glyph glyph-name="uniFEBE" unicode="&#x636;" horiz-adv-x="1171" arabic-form="final" 
d="M1093 0v158h78v-158h-78zM952 0v311q-34 11 -118 11q-116 0 -174.5 -54t-58.5 -161h-141v363h141v-140q21 45 64 79t102 52.5t127 18.5q77 0 120.5 -15.5t61 -53.5t17.5 -104v-307h-141zM327 -240q-80 0 -132 11t-81 38t-40.5 74t-11.5 120q0 37 3 73.5t10 72t18 68.5
l139 -22q-12 -43 -20.5 -84t-8.5 -81q0 -35 2 -61t8 -51h143q53 0 78.5 10.5t25.5 42.5v136h141v-109q0 -70 -10.5 -116.5t-39.5 -73t-83 -37.5t-141 -11zM540 0v158h486l67 -158h-553zM1171 0v158q10 0 15 -21.5t5 -57.5q0 -37 -5 -58t-15 -21zM832 586q-14 0 -32.5 13.5
t-32 32t-13.5 32.5q0 15 13.5 33t31.5 31.5t33 13.5t33 -13.5t31.5 -31.5t13.5 -33q0 -14 -14 -32.5t-32 -32t-32 -13.5z" />
    <glyph glyph-name="uniFEC0" unicode="&#x636;" horiz-adv-x="842" arabic-form="medial" 
d="M765 0v158h77v-158h-77zM624 0v311q-35 11 -118 11q-116 0 -174.5 -54t-58.5 -161h-141v363h141v-140q21 45 64 79t102 52.5t127 18.5q77 0 120 -15.5t61 -53.5t18 -104v-307h-141zM0 0v158h765v-158h-765zM0 0q-10 0 -15 21t-5 58q0 36 5 57.5t15 21.5v-158zM842 0v158
q10 0 15 -21.5t5 -57.5q0 -37 -5 -58t-15 -21zM493 586q-14 0 -32.5 13.5t-32 32t-13.5 32.5q0 15 13.5 33t31.5 31.5t33 13.5t33 -13.5t31.5 -31.5t13.5 -33q0 -14 -14 -32.5t-32 -32t-32 -13.5z" />
    <glyph glyph-name="uniFEBF" unicode="&#x636;" horiz-adv-x="841" arabic-form="initial" 
d="M624 0v311q-35 11 -118 11q-116 0 -174.5 -54t-58.5 -161h-141v363h141v-140q21 45 64 79t102 52.5t127 18.5q77 0 120 -15.5t61 -53.5t18 -104v-307h-141zM0 0v158h765v-158h-765zM0 0q-10 0 -15 21t-5 58q0 36 5 57.5t15 21.5v-158zM493 586q-14 0 -32.5 13.5t-32 32
t-13.5 32.5q0 15 13.5 33t31.5 31.5t33 13.5t33 -13.5t31.5 -31.5t13.5 -33q0 -14 -14 -32.5t-32 -32t-32 -13.5z" />
    <glyph glyph-name="uniFEC2" unicode="&#x637;" horiz-adv-x="842" arabic-form="final" 
d="M765 0v158h77v-158h-77zM624 0v311q-35 11 -118 11q-116 0 -174.5 -54t-58.5 -161h-141v523h141v-300q21 45 64 79t102 52.5t127 18.5q77 0 120 -15.5t61 -53.5t18 -104v-307h-141zM20 0v158h745v-158h-745zM842 0v158q10 0 15 -21.5t5 -57.5q0 -37 -5 -58t-15 -21z" />
    <glyph glyph-name="uniFEC4" unicode="&#x637;" horiz-adv-x="842" arabic-form="medial" 
d="M765 0v158h77v-158h-77zM624 0v311q-35 11 -118 11q-116 0 -174.5 -54t-58.5 -161h-141v523h141v-300q21 45 64 79t102 52.5t127 18.5q77 0 120 -15.5t61 -53.5t18 -104v-307h-141zM0 0v158h624v-158h-624zM0 0q-10 0 -15 21t-5 58q0 36 5 57.5t15 21.5v-158zM842 0v158
q10 0 15 -21.5t5 -57.5q0 -37 -5 -58t-15 -21z" />
    <glyph glyph-name="uniFEC3" unicode="&#x637;" horiz-adv-x="841" arabic-form="initial" 
d="M624 0v311q-35 11 -118 11q-116 0 -174.5 -54t-58.5 -161h-141v523h141v-300q21 45 64 79t102 52.5t127 18.5q77 0 120 -15.5t61 -53.5t18 -104v-307h-141zM0 0v158h624v-158h-624zM0 0q-10 0 -15 21t-5 58q0 36 5 57.5t15 21.5v-158z" />
    <glyph glyph-name="uniFEC6" unicode="&#x638;" horiz-adv-x="842" arabic-form="final" 
d="M765 0v158h77v-158h-77zM624 0v311q-35 11 -118 11q-116 0 -174.5 -54t-58.5 -161h-141v523h141v-300q21 45 64 79t102 52.5t127 18.5q77 0 120 -15.5t61 -53.5t18 -104v-307h-141zM20 0v158h745v-158h-745zM842 0v158q10 0 15 -21.5t5 -57.5q0 -37 -5 -58t-15 -21z
M493 586q-14 0 -32.5 13.5t-32 32t-13.5 32.5q0 15 13.5 33t31.5 31.5t33 13.5t33 -13.5t31.5 -31.5t13.5 -33q0 -14 -14 -32.5t-32 -32t-32 -13.5z" />
    <glyph glyph-name="uniFEC8" unicode="&#x638;" horiz-adv-x="842" arabic-form="medial" 
d="M765 0v158h77v-158h-77zM624 0v311q-35 11 -118 11q-116 0 -174.5 -54t-58.5 -161h-141v523h141v-300q21 45 64 79t102 52.5t127 18.5q77 0 120 -15.5t61 -53.5t18 -104v-307h-141zM0 0v158h624v-158h-624zM0 0q-10 0 -15 21t-5 58q0 36 5 57.5t15 21.5v-158zM842 0v158
q10 0 15 -21.5t5 -57.5q0 -37 -5 -58t-15 -21zM493 586q-14 0 -32.5 13.5t-32 32t-13.5 32.5q0 15 13.5 33t31.5 31.5t33 13.5t33 -13.5t31.5 -31.5t13.5 -33q0 -14 -14 -32.5t-32 -32t-32 -13.5z" />
    <glyph glyph-name="uniFEC7" unicode="&#x638;" horiz-adv-x="841" arabic-form="initial" 
d="M624 0v311q-35 11 -118 11q-116 0 -174.5 -54t-58.5 -161h-141v523h141v-300q21 45 64 79t102 52.5t127 18.5q77 0 120 -15.5t61 -53.5t18 -104v-307h-141zM0 0v158h624v-158h-624zM0 0q-10 0 -15 21t-5 58q0 36 5 57.5t15 21.5v-158zM493 586q-14 0 -32.5 13.5t-32 32
t-13.5 32.5q0 15 13.5 33t31.5 31.5t33 13.5t33 -13.5t31.5 -31.5t13.5 -33q0 -14 -14 -32.5t-32 -32t-32 -13.5z" />
    <glyph glyph-name="uniFECA" unicode="&#x639;" horiz-adv-x="702" arabic-form="final" 
d="M265 -317q-60 0 -101.5 13t-68.5 38t-39 63.5t-12 89.5q0 50 11 86.5t31 62.5t48 45t64 34q-60 49 -95 114t-35 140q0 41 29 66.5t91.5 37t162.5 11.5q102 0 164 -11.5t90.5 -37t28.5 -66.5q0 -45 -11 -82.5t-30.5 -67.5t-44.5 -56q23 -2 46.5 -3.5t46.5 -1.5h61v-158
h-158q-51 0 -100 8t-93 23q-44 -15 -82 -30t-60.5 -29.5t-22.5 -28.5v-95q21 -3 53.5 -5t62.5 -2q47 0 91.5 5.5t94.5 18.5l18 -156q-49 -15 -110 -20.5t-131 -5.5zM349 174q75 17 109.5 55t34.5 96h-284q0 -42 15.5 -72t47 -49.5t77.5 -29.5zM702 0v158q10 0 15 -21.5
t5 -57.5q0 -37 -5 -58t-15 -21z" />
    <glyph glyph-name="uniFECC" unicode="&#x639;" horiz-adv-x="702" arabic-form="medial" 
d="M158 0v158q121 0 195 17.5t107 54.5t33 95h-284q0 -58 33.5 -95t107 -54.5t194.5 -17.5v-158q-99 0 -185.5 28.5t-151.5 79t-102 117t-37 144.5q0 41 29 66.5t91.5 37t162.5 11.5q102 0 164 -11.5t90.5 -37t28.5 -66.5q0 -77 -36.5 -144.5t-101.5 -117.5t-151.5 -78.5
t-186.5 -28.5zM0 0v158h158v-158h-158zM544 0v158h158v-158h-158zM0 0q-10 0 -15 21t-5 58q0 36 5 57.5t15 21.5v-158zM702 0v158q10 0 15 -21.5t5 -57.5q0 -37 -5 -58t-15 -21z" />
    <glyph glyph-name="uniFECB" unicode="&#x639;" horiz-adv-x="595" arabic-form="initial" 
d="M326 0q-62 0 -104 12.5t-67.5 40.5t-37 74.5t-11.5 113.5t10.5 112.5t35 73.5t65.5 40.5t100 12.5q34 0 65 -2.5t62 -7.5t62 -14l-21 -151q-45 9 -78 13t-68 4q-29 0 -51 -1.5t-40 -4.5v-107q0 -27 15.5 -39t47.5 -12h244v-158h-229zM0 0v158h237l97 -158h-334zM0 0
q-10 0 -15 21t-5 58q0 36 5 57.5t15 21.5v-158z" />
    <glyph glyph-name="uniFECE" unicode="&#x63a;" horiz-adv-x="702" arabic-form="final" 
d="M265 -317q-60 0 -101.5 13t-68.5 38t-39 63.5t-12 89.5q0 50 11 86.5t31 62.5t48 45t64 34q-60 49 -95 114t-35 140q0 41 29 66.5t91.5 37t162.5 11.5q102 0 164 -11.5t90.5 -37t28.5 -66.5q0 -45 -11 -82.5t-30.5 -67.5t-44.5 -56q23 -2 46.5 -3.5t46.5 -1.5h61v-158
h-158q-51 0 -100 8t-93 23q-44 -15 -82 -30t-60.5 -29.5t-22.5 -28.5v-95q21 -3 53.5 -5t62.5 -2q47 0 91.5 5.5t94.5 18.5l18 -156q-49 -15 -110 -20.5t-131 -5.5zM349 174q75 17 109.5 55t34.5 96h-284q0 -42 15.5 -72t47 -49.5t77.5 -29.5zM702 0v158q10 0 15 -21.5
t5 -57.5q0 -37 -5 -58t-15 -21zM351 586q-14 0 -32.5 13.5t-32 32t-13.5 32.5q0 15 13.5 33t31.5 31.5t33 13.5t33 -13.5t31.5 -31.5t13.5 -33q0 -14 -14 -32.5t-32 -32t-32 -13.5z" />
    <glyph glyph-name="uniFED0" unicode="&#x63a;" horiz-adv-x="702" arabic-form="medial" 
d="M158 0v158q121 0 195 17.5t107 54.5t33 95h-284q0 -58 33.5 -95t107 -54.5t194.5 -17.5v-158q-99 0 -185.5 28.5t-151.5 79t-102 117t-37 144.5q0 41 29 66.5t91.5 37t162.5 11.5q102 0 164 -11.5t90.5 -37t28.5 -66.5q0 -77 -36.5 -144.5t-101.5 -117.5t-151.5 -78.5
t-186.5 -28.5zM0 0v158h158v-158h-158zM544 0v158h158v-158h-158zM0 0q-10 0 -15 21t-5 58q0 36 5 57.5t15 21.5v-158zM702 0v158q10 0 15 -21.5t5 -57.5q0 -37 -5 -58t-15 -21zM351 586q-14 0 -32.5 13.5t-32 32t-13.5 32.5q0 15 13.5 33t31.5 31.5t33 13.5t33 -13.5
t31.5 -31.5t13.5 -33q0 -14 -14 -32.5t-32 -32t-32 -13.5z" />
    <glyph glyph-name="uniFECF" unicode="&#x63a;" horiz-adv-x="595" arabic-form="initial" 
d="M326 0q-62 0 -104 12.5t-67.5 40.5t-37 74.5t-11.5 113.5t10.5 112.5t35 73.5t65.5 40.5t100 12.5q34 0 65 -2.5t62 -7.5t62 -14l-21 -151q-45 9 -78 13t-68 4q-29 0 -51 -1.5t-40 -4.5v-107q0 -27 15.5 -39t47.5 -12h244v-158h-229zM0 0v158h237l97 -158h-334zM0 0
q-10 0 -15 21t-5 58q0 36 5 57.5t15 21.5v-158zM325 586q-14 0 -32.5 13.5t-32 32t-13.5 32.5q0 15 13.5 33t31.5 31.5t33 13.5t33 -13.5t31.5 -31.5t13.5 -33q0 -14 -14 -32.5t-32 -32t-32 -13.5z" />
    <glyph glyph-name="uniFED2" unicode="&#x641;" horiz-adv-x="1014" arabic-form="final" 
d="M937 1v158h77v-158h-77zM224 0q-58 0 -96 22.5t-55.5 71t-17.5 125.5q0 50 8 100t23 95l135 -21q-13 -36 -19 -68.5t-6 -64.5t3 -56.5t10 -45.5h265q-9 34 -13 62.5t-4 69.5q0 50 13.5 86.5t43.5 60.5t77 35.5t114 11.5q69 0 122.5 -8.5t109.5 -29.5v-446h-713zM606 158
h150q23 0 31.5 9t8.5 32v123h-149q-23 0 -32 -9t-9 -33v-122zM1014 0v158q10 0 15 -21.5t5 -57.5q0 -37 -5 -58t-15 -21zM728 586q-14 0 -32.5 13.5t-32 32t-13.5 32.5q0 15 13.5 33t31.5 31.5t33 13.5t33 -13.5t31.5 -31.5t13.5 -33q0 -14 -14 -32.5t-32 -32t-32 -13.5z
" />
    <glyph glyph-name="uniFED4" unicode="&#x641;" horiz-adv-x="667" arabic-form="medial" 
d="M590 1v158h77v-158h-77zM0 0v158h127q-9 34 -13.5 62.5t-4.5 69.5q0 50 14 86.5t43.5 60.5t77 35.5t113.5 11.5q70 0 123.5 -8.5t109.5 -29.5v-446h-590zM259 158h150q23 0 31.5 9t8.5 32v126h-149q-23 0 -32 -9t-9 -33v-125zM0 0q-10 0 -15 21t-5 58q0 36 5 57.5
t15 21.5v-158zM667 0v158q10 0 15 -21.5t5 -57.5q0 -37 -5 -58t-15 -21zM358 586q-14 0 -32.5 13.5t-32 32t-13.5 32.5q0 15 13.5 33t31.5 31.5t33 13.5t33 -13.5t31.5 -31.5t13.5 -33q0 -14 -14 -32.5t-32 -32t-32 -13.5z" />
    <glyph glyph-name="uniFED3" unicode="&#x641;" horiz-adv-x="667" arabic-form="initial" 
d="M0 0v158h127q-9 34 -13.5 62.5t-4.5 69.5q0 50 14 86.5t43.5 60.5t77 35.5t113.5 11.5q70 0 123.5 -8.5t109.5 -29.5v-446h-590zM259 158h150q23 0 31.5 9t8.5 32v126h-149q-23 0 -32 -9t-9 -33v-125zM0 0q-10 0 -15 21t-5 58q0 36 5 57.5t15 21.5v-158zM358 586
q-14 0 -32.5 13.5t-32 32t-13.5 32.5q0 15 13.5 33t31.5 31.5t33 13.5t33 -13.5t31.5 -31.5t13.5 -33q0 -14 -14 -32.5t-32 -32t-32 -13.5z" />
    <glyph glyph-name="uniFB6B" unicode="&#x6a4;" horiz-adv-x="1014" arabic-form="final" 
d="M937 1v158h77v-158h-77zM224 0q-58 0 -96 22.5t-55.5 71t-17.5 125.5q0 50 8 100t23 95l135 -21q-13 -36 -19 -68.5t-6 -64.5t3 -56.5t10 -45.5h265q-9 34 -13 62.5t-4 69.5q0 50 13.5 86.5t43.5 60.5t77 35.5t114 11.5q69 0 122.5 -8.5t109.5 -29.5v-446h-713zM606 158
h150q23 0 31.5 9t8.5 32v123h-149q-23 0 -32 -9t-9 -33v-122zM1014 0v158q10 0 15 -21.5t5 -57.5q0 -37 -5 -58t-15 -21zM638 586q-14 0 -32.5 13.5t-32 32t-13.5 32.5q0 15 13.5 33t31.5 31.5t33 13.5t33 -13.5t31.5 -31.5t13.5 -33q0 -14 -14 -32.5t-32 -32t-32 -13.5z
M818 586q-14 0 -32.5 13.5t-32 32t-13.5 32.5q0 15 13.5 33t31.5 31.5t33 13.5t33 -13.5t31.5 -31.5t13.5 -33q0 -14 -14 -32.5t-32 -32t-32 -13.5zM728 778q-14 0 -32.5 13.5t-32 32t-13.5 32.5q0 15 13.5 33t31.5 31.5t33 13.5t33 -13.5t31.5 -31.5t13.5 -33
q0 -14 -14 -32.5t-32 -32t-32 -13.5z" />
    <glyph glyph-name="uniFB6D" unicode="&#x6a4;" horiz-adv-x="667" arabic-form="medial" 
d="M590 1v158h77v-158h-77zM0 0v158h127q-9 34 -13.5 62.5t-4.5 69.5q0 50 14 86.5t43.5 60.5t77 35.5t113.5 11.5q70 0 123.5 -8.5t109.5 -29.5v-446h-590zM259 158h150q23 0 31.5 9t8.5 32v126h-149q-23 0 -32 -9t-9 -33v-125zM0 0q-10 0 -15 21t-5 58q0 36 5 57.5
t15 21.5v-158zM667 0v158q10 0 15 -21.5t5 -57.5q0 -37 -5 -58t-15 -21zM268 586q-14 0 -32.5 13.5t-32 32t-13.5 32.5q0 15 13.5 33t31.5 31.5t33 13.5t33 -13.5t31.5 -31.5t13.5 -33q0 -14 -14 -32.5t-32 -32t-32 -13.5zM448 586q-14 0 -32.5 13.5t-32 32t-13.5 32.5
q0 15 13.5 33t31.5 31.5t33 13.5t33 -13.5t31.5 -31.5t13.5 -33q0 -14 -14 -32.5t-32 -32t-32 -13.5zM358 778q-14 0 -32.5 13.5t-32 32t-13.5 32.5q0 15 13.5 33t31.5 31.5t33 13.5t33 -13.5t31.5 -31.5t13.5 -33q0 -14 -14 -32.5t-32 -32t-32 -13.5z" />
    <glyph glyph-name="uniFB6C" unicode="&#x6a4;" horiz-adv-x="667" arabic-form="initial" 
d="M0 0v158h127q-9 34 -13.5 62.5t-4.5 69.5q0 50 14 86.5t43.5 60.5t77 35.5t113.5 11.5q70 0 123.5 -8.5t109.5 -29.5v-446h-590zM259 158h150q23 0 31.5 9t8.5 32v126h-149q-23 0 -32 -9t-9 -33v-125zM0 0q-10 0 -15 21t-5 58q0 36 5 57.5t15 21.5v-158zM268 586
q-14 0 -32.5 13.5t-32 32t-13.5 32.5q0 15 13.5 33t31.5 31.5t33 13.5t33 -13.5t31.5 -31.5t13.5 -33q0 -14 -14 -32.5t-32 -32t-32 -13.5zM448 586q-14 0 -32.5 13.5t-32 32t-13.5 32.5q0 15 13.5 33t31.5 31.5t33 13.5t33 -13.5t31.5 -31.5t13.5 -33q0 -14 -14 -32.5
t-32 -32t-32 -13.5zM358 778q-14 0 -32.5 13.5t-32 32t-13.5 32.5q0 15 13.5 33t31.5 31.5t33 13.5t33 -13.5t31.5 -31.5t13.5 -33q0 -14 -14 -32.5t-32 -32t-32 -13.5z" />
    <glyph glyph-name="uni06A1.init" unicode="&#x6a1;" horiz-adv-x="667" 
d="M0 0v158h127q-9 34 -13.5 62.5t-4.5 69.5q0 50 14 86.5t43.5 60.5t77 35.5t113.5 11.5q70 0 123.5 -8.5t109.5 -29.5v-446h-590zM259 158h150q23 0 31.5 9t8.5 32v126h-149q-23 0 -32 -9t-9 -33v-125zM0 0q-10 0 -15 21t-5 58q0 36 5 57.5t15 21.5v-158z" />
    <glyph glyph-name="uni06A1.medi" unicode="&#x6a1;" horiz-adv-x="667" 
d="M590 1v158h77v-158h-77zM0 0v158h127q-9 34 -13.5 62.5t-4.5 69.5q0 50 14 86.5t43.5 60.5t77 35.5t113.5 11.5q70 0 123.5 -8.5t109.5 -29.5v-446h-590zM259 158h150q23 0 31.5 9t8.5 32v126h-149q-23 0 -32 -9t-9 -33v-125zM0 0q-10 0 -15 21t-5 58q0 36 5 57.5
t15 21.5v-158zM667 0v158q10 0 15 -21.5t5 -57.5q0 -37 -5 -58t-15 -21z" />
    <glyph glyph-name="uni06A1.fina" unicode="&#x6a1;" horiz-adv-x="1014" 
d="M937 1v158h77v-158h-77zM224 0q-58 0 -96 22.5t-55.5 71t-17.5 125.5q0 50 8 100t23 95l135 -21q-13 -36 -19 -68.5t-6 -64.5t3 -56.5t10 -45.5h265q-9 34 -13 62.5t-4 69.5q0 50 13.5 86.5t43.5 60.5t77 35.5t114 11.5q69 0 122.5 -8.5t109.5 -29.5v-446h-713zM606 158
h150q23 0 31.5 9t8.5 32v123h-149q-23 0 -32 -9t-9 -33v-122zM1014 0v158q10 0 15 -21.5t5 -57.5q0 -37 -5 -58t-15 -21z" />
    <glyph glyph-name="uni066F.fina" unicode="&#x66f;" horiz-adv-x="929" 
d="M852 0v158h77v-158h-77zM222 -276q-59 0 -96.5 27t-55.5 83.5t-18 147.5q0 40 3.5 80.5t10.5 79t17 74.5l136 -21q-13 -46 -19.5 -88.5t-6.5 -83.5q0 -45 2.5 -78.5t9.5 -62.5h506v118h141v-73q0 -71 -23 -116t-71.5 -66t-125.5 -21h-410zM573 0q-53 0 -92 13.5t-63 43
t-35.5 77t-11.5 114.5q0 63 14 108.5t43.5 73.5t77 41t113.5 13q74 0 127.5 -8.5t105.5 -29.5v-446h-279zM521 158h149q23 0 32 9t9 32v126h-134q-33 0 -44.5 -8.5t-11.5 -33.5v-125zM929 0v158q10 0 15 -21.5t5 -57.5q0 -37 -5 -58t-15 -21z" />
    <glyph glyph-name="uniFED6" unicode="&#x642;" horiz-adv-x="929" arabic-form="final" 
d="M852 0v158h77v-158h-77zM222 -276q-59 0 -96.5 27t-55.5 83.5t-18 147.5q0 40 3.5 80.5t10.5 79t17 74.5l136 -21q-13 -46 -19.5 -88.5t-6.5 -83.5q0 -45 2.5 -78.5t9.5 -62.5h506v118h141v-73q0 -71 -23 -116t-71.5 -66t-125.5 -21h-410zM573 0q-53 0 -92 13.5t-63 43
t-35.5 77t-11.5 114.5q0 63 14 108.5t43.5 73.5t77 41t113.5 13q74 0 127.5 -8.5t105.5 -29.5v-446h-279zM521 158h149q23 0 32 9t9 32v126h-134q-33 0 -44.5 -8.5t-11.5 -33.5v-125zM929 0v158q10 0 15 -21.5t5 -57.5q0 -37 -5 -58t-15 -21zM523 586q-14 0 -32.5 13.5
t-32 32t-13.5 32.5q0 15 13.5 33t31.5 31.5t33 13.5t33 -13.5t31.5 -31.5t13.5 -33q0 -14 -14 -32.5t-32 -32t-32 -13.5zM703 586q-14 0 -32.5 13.5t-32 32t-13.5 32.5q0 15 13.5 33t31.5 31.5t33 13.5t33 -13.5t31.5 -31.5t13.5 -33q0 -14 -14 -32.5t-32 -32t-32 -13.5z
" />
    <glyph glyph-name="uniFED8" unicode="&#x642;" horiz-adv-x="667" arabic-form="medial" 
d="M590 1v158h77v-158h-77zM0 0v158h127q-9 34 -13.5 62.5t-4.5 69.5q0 50 14 86.5t43.5 60.5t77 35.5t113.5 11.5q70 0 123.5 -8.5t109.5 -29.5v-446h-590zM259 158h150q23 0 31.5 9t8.5 32v126h-149q-23 0 -32 -9t-9 -33v-125zM0 0q-10 0 -15 21t-5 58q0 36 5 57.5
t15 21.5v-158zM667 0v158q10 0 15 -21.5t5 -57.5q0 -37 -5 -58t-15 -21zM268 586q-14 0 -32.5 13.5t-32 32t-13.5 32.5q0 15 13.5 33t31.5 31.5t33 13.5t33 -13.5t31.5 -31.5t13.5 -33q0 -14 -14 -32.5t-32 -32t-32 -13.5zM448 586q-14 0 -32.5 13.5t-32 32t-13.5 32.5
q0 15 13.5 33t31.5 31.5t33 13.5t33 -13.5t31.5 -31.5t13.5 -33q0 -14 -14 -32.5t-32 -32t-32 -13.5z" />
    <glyph glyph-name="uniFED7" unicode="&#x642;" horiz-adv-x="667" arabic-form="initial" 
d="M0 0v158h127q-9 34 -13.5 62.5t-4.5 69.5q0 50 14 86.5t43.5 60.5t77 35.5t113.5 11.5q70 0 123.5 -8.5t109.5 -29.5v-446h-590zM259 158h150q23 0 31.5 9t8.5 32v126h-149q-23 0 -32 -9t-9 -33v-125zM0 0q-10 0 -15 21t-5 58q0 36 5 57.5t15 21.5v-158zM268 586
q-14 0 -32.5 13.5t-32 32t-13.5 32.5q0 15 13.5 33t31.5 31.5t33 13.5t33 -13.5t31.5 -31.5t13.5 -33q0 -14 -14 -32.5t-32 -32t-32 -13.5zM448 586q-14 0 -32.5 13.5t-32 32t-13.5 32.5q0 15 13.5 33t31.5 31.5t33 13.5t33 -13.5t31.5 -31.5t13.5 -33q0 -14 -14 -32.5
t-32 -32t-32 -13.5z" />
    <glyph glyph-name="uniFEDA" unicode="&#x643;" horiz-adv-x="914" arabic-form="final" 
d="M837 0v158h77v-158h-77zM224 0q-58 0 -96 22.5t-55.5 71t-17.5 125.5q0 50 8 100t23 95l135 -21q-13 -36 -19 -68.5t-6 -64.5t3 -56.5t10 -45.5h487v472h141v-630h-613zM332 376v65l38 11q-4 11 -5.5 24t-1.5 30q0 53 21.5 83.5t61.5 45t92 18.5v-76q-24 -3 -45 -7.5
t-43 -13.5l-1 -53q0 -16 8.5 -20.5t28.5 0.5l80 22v-67zM914 0v158q10 0 15 -21.5t5 -57.5q0 -37 -5 -58t-15 -21z" />
    <glyph glyph-name="uniFEDC" unicode="&#x643;" horiz-adv-x="721" arabic-form="medial" 
d="M644 0v158h77v-158h-77zM0 0v158h503v130h-307q-55 0 -84.5 30.5t-29.5 87.5q0 38 12 81.5t33 88.5t49.5 86t61.5 73l113 -61q-21 -20 -42.5 -48.5t-41 -60.5t-33.5 -63t-20 -56h251q69 0 108 -16t55 -54.5t16 -107.5v-268h-644zM0 0q-10 0 -15 21t-5 58q0 36 5 57.5
t15 21.5v-158zM721 0v158q10 0 15 -21.5t5 -57.5q0 -37 -5 -58t-15 -21z" />
    <glyph glyph-name="uniFEDB" unicode="&#x643;" horiz-adv-x="721" arabic-form="initial" 
d="M0 0v158h503v130h-307q-55 0 -84.5 30.5t-29.5 87.5q0 38 12 81.5t33 88.5t49.5 86t61.5 73l113 -61q-21 -20 -42.5 -48.5t-41 -60.5t-33.5 -63t-20 -56h251q69 0 108 -16t55 -54.5t16 -107.5v-268h-644zM0 0q-10 0 -15 21t-5 58q0 36 5 57.5t15 21.5v-158z" />
    <glyph glyph-name="uniFB8F" unicode="&#x6a9;" horiz-adv-x="882" arabic-form="final" 
d="M805 0v158h77v-158h-77zM224 0q-58 0 -96 22.5t-55.5 71t-17.5 125.5q0 50 8 100t23 95l135 -21q-13 -36 -19 -68.5t-6 -64.5t3 -56.5t10 -45.5h455v130h-212q-55 0 -84.5 30.5t-29.5 87.5q0 38 12 81.5t33 88.5t49.5 86t61.5 73l113 -61q-20 -20 -42 -48.5t-41.5 -60.5
t-33.5 -63t-19 -56h155q69 0 108 -16t55 -54.5t16 -107.5v-268h-581zM882 0v158q10 0 15 -21.5t5 -57.5q0 -37 -5 -58t-15 -21z" />
    <glyph glyph-name="uniFB91" unicode="&#x6a9;" horiz-adv-x="721" arabic-form="medial" 
d="M644 0v158h77v-158h-77zM0 0v158h503v130h-307q-55 0 -84.5 30.5t-29.5 87.5q0 38 12 81.5t33 88.5t49.5 86t61.5 73l113 -61q-21 -20 -42.5 -48.5t-41 -60.5t-33.5 -63t-20 -56h251q69 0 108 -16t55 -54.5t16 -107.5v-268h-644zM0 0q-10 0 -15 21t-5 58q0 36 5 57.5
t15 21.5v-158zM721 0v158q10 0 15 -21.5t5 -57.5q0 -37 -5 -58t-15 -21z" />
    <glyph glyph-name="uniFB90" unicode="&#x6a9;" horiz-adv-x="721" arabic-form="initial" 
d="M0 0v158h503v130h-307q-55 0 -84.5 30.5t-29.5 87.5q0 38 12 81.5t33 88.5t49.5 86t61.5 73l113 -61q-21 -20 -42.5 -48.5t-41 -60.5t-33.5 -63t-20 -56h251q69 0 108 -16t55 -54.5t16 -107.5v-268h-644zM0 0q-10 0 -15 21t-5 58q0 36 5 57.5t15 21.5v-158z" />
    <glyph glyph-name="uniFB93" unicode="&#x6af;" horiz-adv-x="882" arabic-form="final" 
d="M270 465l-118 38q4 35 17.5 79t35 90t47.5 87t55 71l113 -62q-46 -51 -77 -103.5t-48 -103t-25 -96.5zM224 0q-58 0 -96 22.5t-55.5 71t-17.5 125.5q0 50 8 100t23 95l135 -21q-13 -36 -19 -68.5t-6 -64.5t3 -56.5t10 -45.5h455v130h-212q-55 0 -84.5 30.5t-29.5 87.5
q0 38 12 81.5t33 88.5t49.5 86t61.5 73l113 -61q-20 -20 -42 -48.5t-41.5 -60.5t-33.5 -63t-19 -56h155q69 0 108 -16t55 -54.5t16 -107.5v-268h-581zM882 0v158q10 0 15 -21.5t5 -57.5q0 -37 -5 -58t-15 -21zM805 0v158h77v-158h-77z" />
    <glyph glyph-name="uniFB95" unicode="&#x6af;" horiz-adv-x="868" arabic-form="medial" 
d="M173 461l-118 38q4 35 17.5 78.5t35 90t47.5 87.5t55 70l113 -61q-46 -51 -77 -104t-48 -103t-25 -96zM0 -2v159h650v129h-307q-55 0 -85 31t-30 88q0 37 12 81t33.5 89t50 86t61.5 72l113 -61q-21 -19 -42.5 -47.5t-41 -61t-34 -63.5t-19.5 -55h251q69 0 108 -16t55 -55
t16 -108v-109h77v-159h-868zM0 -2q-10 0 -15 21.5t-5 58.5q0 35 5 57t15 22v-159zM868 -2v159q10 0 15 -22t5 -57q0 -37 -5 -58.5t-15 -21.5z" />
    <glyph glyph-name="uniFB94" unicode="&#x6af;" horiz-adv-x="863" arabic-form="initial" 
d="M172 460l-118 38q5 35 18.5 78.5t34.5 90t47 87.5t55 70l113 -61q-46 -51 -76.5 -104t-48 -103t-25.5 -96zM0 0v158h645v130h-307q-55 0 -85 30.5t-30 87.5q0 38 12 81.5t33.5 88.5t50 86.5t61.5 72.5l112 -61q-20 -20 -41.5 -48.5t-41.5 -60.5t-34 -63t-19 -56h251
q69 0 107.5 -16t54.5 -54.5t16 -107.5v-268h-785zM0 0q-10 0 -15 21t-5 58q0 36 5 57.5t15 21.5v-158z" />
    <glyph glyph-name="uniFEDE" unicode="&#x644;" horiz-adv-x="678" arabic-form="final" 
d="M601 0v158h77v-158h-77zM327 -240q-80 0 -131.5 11t-80.5 38t-41 74t-12 120q0 42 3.5 83.5t11.5 82t18 78.5l134 -22q-13 -51 -19.5 -99.5t-6.5 -95.5q0 -35 2 -61.5t8 -49.5h143q53 0 78.5 10.5t25.5 42.5v664h141v-638q0 -70 -10.5 -116.5t-39.5 -73t-83 -37.5
t-141 -11zM678 0v158q10 0 15 -21.5t5 -57.5q0 -37 -5 -58t-15 -21z" />
    <glyph glyph-name="uniFEE0" unicode="&#x644;" horiz-adv-x="350" arabic-form="medial" 
d="M273 0v158h77v-158h-77zM0 0v158h132v472h141v-630h-273zM0 0q-10 0 -15 21t-5 58q0 36 5 57.5t15 21.5v-158zM350 0v158q10 0 15 -21.5t5 -57.5q0 -37 -5 -58t-15 -21z" />
    <glyph glyph-name="uniFEDF" unicode="&#x644;" horiz-adv-x="350" arabic-form="initial" 
d="M0 0v158h132v472h141v-630h-273zM0 0q-10 0 -15 21t-5 58q0 36 5 57.5t15 21.5v-158z" />
    <glyph glyph-name="uniFEE2" unicode="&#x645;" horiz-adv-x="689" arabic-form="final" 
d="M611 0v158h78v-158h-78zM38 -334q-11 35 -18.5 73.5t-11 79.5t-3.5 81q0 90 17 147t52.5 84t92.5 27h303v162q-14 3 -32.5 4t-46.5 1q-45 0 -93.5 -6t-100.5 -19l-55 139q60 21 127.5 33t137.5 12q72 0 117 -17t66 -53t21 -94v-320h-452q-7 -25 -10 -57t-3 -77
q0 -34 6.5 -74t24.5 -103zM161 47q-31 35 -41.5 85t-10.5 115q0 51 8.5 96t24.5 96l145 -32q-17 -48 -27 -84.5t-10 -75.5t3 -66t10 -47.5t19 -40.5zM689 0v158q9 0 14.5 -21.5t5.5 -57.5q0 -37 -5.5 -58t-14.5 -21z" />
    <glyph glyph-name="uniFEE4" unicode="&#x645;" horiz-adv-x="689" arabic-form="medial" 
d="M611 0v158h78v-158h-78zM0 0v158h470v162q-15 3 -34.5 4t-44.5 1q-46 0 -95 -6t-99 -19l-55 139q41 15 85 25t89.5 15t90.5 5q72 0 117 -17t66 -53t21 -94v-320h-611zM161 47q-31 35 -41.5 85t-10.5 115q0 51 8.5 96t24.5 96l145 -32q-17 -48 -27 -84.5t-10 -75.5t3 -66
t10 -47.5t19 -40.5zM0 0q-10 0 -15 21t-5 58q0 36 5 57.5t15 21.5v-158zM689 0v158q9 0 14.5 -21.5t5.5 -57.5q0 -37 -5.5 -58t-14.5 -21z" />
    <glyph glyph-name="uniFEE3" unicode="&#x645;" horiz-adv-x="684" arabic-form="initial" 
d="M0 0v158h470v162q-15 3 -34.5 4t-44.5 1q-46 0 -95 -6t-99 -19l-55 139q41 15 85 25t89.5 15t90.5 5q72 0 117 -17t66 -53t21 -94v-320h-611zM161 47q-31 35 -41.5 85t-10.5 115q0 51 8.5 96t24.5 96l145 -32q-17 -48 -27 -84.5t-10 -75.5t3 -66t10 -47.5t19 -40.5zM0 0
q-10 0 -15 21t-5 58q0 36 5 57.5t15 21.5v-158z" />
    <glyph glyph-name="uniFEE6" unicode="&#x646;" horiz-adv-x="678" arabic-form="final" 
d="M601 0v158h77v-158h-77zM327 -240q-80 0 -131.5 11t-80.5 38t-41 74t-12 120q0 42 3.5 83.5t11.5 82t18 78.5l134 -22q-13 -51 -19.5 -99.5t-6.5 -95.5q0 -35 2 -61.5t8 -49.5h143q53 0 78.5 10.5t25.5 42.5v498h141v-472q0 -70 -10.5 -116.5t-39.5 -73t-83 -37.5
t-141 -11zM678 0v158q10 0 15 -21.5t5 -57.5q0 -37 -5 -58t-15 -21zM332 586q-14 0 -32.5 13.5t-32 32t-13.5 32.5q0 15 13.5 33t31.5 31.5t33 13.5t33 -13.5t31.5 -31.5t13.5 -33q0 -14 -14 -32.5t-32 -32t-32 -13.5z" />
    <glyph glyph-name="uniFEE8" unicode="&#x646;" horiz-adv-x="350" arabic-form="medial" 
d="M273 0v158h77v-158h-77zM0 0v158h205l-73 -72v384h141v-470h-273zM0 0q-10 0 -15 21t-5 58q0 36 5 57.5t15 21.5v-158zM350 0v158q10 0 15 -21.5t5 -57.5q0 -37 -5 -58t-15 -21zM203 586q-14 0 -32.5 13.5t-32 32t-13.5 32.5q0 15 13.5 33t31.5 31.5t33 13.5t33 -13.5
t31.5 -31.5t13.5 -33q0 -14 -14 -32.5t-32 -32t-32 -13.5z" />
    <glyph glyph-name="uniFEE7" unicode="&#x646;" horiz-adv-x="350" arabic-form="initial" 
d="M0 0v158h205l-73 -72v384h141v-470h-273zM0 0q-10 0 -15 21t-5 58q0 36 5 57.5t15 21.5v-158zM203 586q-14 0 -32.5 13.5t-32 32t-13.5 32.5q0 15 13.5 33t31.5 31.5t33 13.5t33 -13.5t31.5 -31.5t13.5 -33q0 -14 -14 -32.5t-32 -32t-32 -13.5z" />
    <glyph glyph-name="uniFB9F" unicode="&#x6ba;" horiz-adv-x="678" arabic-form="final" 
d="M601 0v158h77v-158h-77zM327 -240q-80 0 -131.5 11t-80.5 38t-41 74t-12 120q0 42 3.5 83.5t11.5 82t18 78.5l134 -22q-13 -51 -19.5 -99.5t-6.5 -95.5q0 -35 2 -61.5t8 -49.5h143q53 0 78.5 10.5t25.5 42.5v498h141v-472q0 -70 -10.5 -116.5t-39.5 -73t-83 -37.5
t-141 -11zM678 0v158q10 0 15 -21.5t5 -57.5q0 -37 -5 -58t-15 -21z" />
    <glyph glyph-name="uniFEEA" unicode="&#x647;" horiz-adv-x="639" arabic-form="final" 
d="M561 0v158h78v-158h-78zM299 0q-71 0 -116.5 10t-71 35.5t-35.5 71.5t-10 118t10 118t35.5 71.5t71 35.5t116.5 10h263v-470h-263zM259 158h163v154h-163q-22 0 -32.5 -9.5t-10.5 -27.5v-80q0 -18 10.5 -27.5t32.5 -9.5zM639 0v158q9 0 14.5 -21.5t5.5 -57.5
q0 -37 -5.5 -58t-14.5 -21z" />
    <glyph glyph-name="uniFEEC" unicode="&#x647;" horiz-adv-x="767" arabic-form="medial" 
d="M644 0v158h123v-158h-123zM0 0v158h563l-34 140q-13 49 -42 80.5t-86 47t-154 15.5l8 154q130 0 211 -23t127 -75.5t67 -142.5l57 -231v-123h-717zM202 131h140v111h-103q-19 0 -28 -7.5t-9 -23.5v-80zM79 131q0 73 8.5 118.5t29.5 68.5t58.5 30.5t95.5 7.5q59 0 97 -7.5
t59.5 -30.5t30 -68t8.5 -119h-387zM0 0q-10 0 -15 21t-5 58q0 36 5 57.5t15 21.5v-158zM767 0v158q10 0 15 -21.5t5 -57.5q0 -37 -5 -58t-15 -21z" />
    <glyph glyph-name="uniFEEB" unicode="&#x647;" horiz-adv-x="767" arabic-form="initial" 
d="M0 0v158h563l-34 140q-13 49 -42 80.5t-86 47t-154 15.5l8 154q130 0 211 -23t127 -75.5t67 -142.5l57 -231v-123h-717zM202 131h140v111h-103q-19 0 -28 -7.5t-9 -23.5v-80zM79 131q0 73 8.5 118.5t29.5 68.5t58.5 30.5t95.5 7.5q59 0 97 -7.5t59.5 -30.5t30 -68
t8.5 -119h-387zM0 0q-10 0 -15 21t-5 58q0 36 5 57.5t15 21.5v-158z" />
    <glyph glyph-name="uniFBA7" unicode="&#x6c1;" horiz-adv-x="669" arabic-form="final" 
d="M72 0v317q0 59 23 95.5t76 54t144 17.5q50 0 96.5 -3.5t91 -11t88.5 -18.5l-17 -151q-35 9 -72 14.5t-78 8t-90 2.5q-32 0 -66 -1t-55 -4v-320h-141zM451 0v451h140v-293h78v-158h-218zM669 0v158q9 0 14.5 -21.5t5.5 -57.5q0 -37 -5.5 -58t-14.5 -21z" />
    <glyph glyph-name="uniFBA9" unicode="&#x6c1;" horiz-adv-x="688" arabic-form="medial" 
d="M410 -375q-62 0 -123.5 11t-119.5 34q-19 50 -29.5 104.5t-10.5 109.5v116h133v-108q0 -31 5 -63t14 -64q58 -8 112 -8q19 0 43 1.5t36 4.5v253h141v-224q0 -58 -18.5 -95t-62 -54.5t-120.5 -17.5zM0 0v158h260v-158h-260zM470 0v158h219v-158h-219zM0 0q-10 0 -15 21
t-5 58q0 36 5 57.5t15 21.5v-158zM689 0v158q9 0 14.5 -21.5t5.5 -57.5q0 -37 -5.5 -58t-14.5 -21z" />
    <glyph glyph-name="uniFBA8" unicode="&#x6c1;" horiz-adv-x="350" arabic-form="initial" 
d="M0 0v158h205l-73 -72v384h141v-470h-273zM0 0q-10 0 -15 21t-5 58q0 36 5 57.5t15 21.5v-158zM210.599 21.3965l63.1992 -20.7998l-24 -92.7988q24 -4.7998 33.999 -20.7998q10 -16 10 -50.3994q0 -45.5986 -16.7998 -61.999q-16.7998 -16.3994 -62.3984 -16.3994
q-44 0 -60.7998 16.3994q-16.7988 16.4004 -16.7988 61.999q0.799805 19.2002 2.7998 30.7998t6.7998 23.1992q4.7998 11.6006 15.1992 32.4004z" />
    <glyph glyph-name="uni06C2.fina" unicode="&#x6c2;" horiz-adv-x="639" 
d="M561 0v158h78v-158h-78zM299 0q-71 0 -116.5 10t-71 35.5t-35.5 71.5t-10 118t10 118t35.5 71.5t71 35.5t116.5 10h263v-470h-263zM259 158h163v154h-163q-22 0 -32.5 -9.5t-10.5 -27.5v-80q0 -18 10.5 -27.5t32.5 -9.5zM639 0v158q9 0 14.5 -21.5t5.5 -57.5
q0 -37 -5.5 -58t-14.5 -21zM218 576v65l38 11q-4 11 -5.5 24t-1.5 30q0 53 21.5 83.5t61.5 45t92 18.5v-76q-25 -3 -45.5 -7.5t-42.5 -13.5l-1 -53q0 -16 8.5 -20.5t28.5 0.5l80 22v-67z" />
    <glyph glyph-name="uniFBAB" unicode="&#x6be;" horiz-adv-x="767" arabic-form="final" 
d="M647 0v158h120v-158h-120zM20 0v158h543l-34 140q-13 49 -42 80.5t-86 47t-154 15.5l8 154q130 0 211 -23t127 -75.5t67 -142.5l57 -231v-123h-697zM202 131h140v111h-103q-19 0 -28 -7.5t-9 -23.5v-80zM79 131q0 73 8.5 118.5t29.5 68.5t58.5 30.5t95.5 7.5
q59 0 97 -7.5t59.5 -30.5t30 -68t8.5 -119h-387zM767 0v158q10 0 15 -21.5t5 -57.5q0 -37 -5 -58t-15 -21z" />
    <glyph glyph-name="uniFBAD" unicode="&#x6be;" horiz-adv-x="767" arabic-form="medial" 
d="M644 0v158h123v-158h-123zM0 0v158h563l-34 140q-13 49 -42 80.5t-86 47t-154 15.5l8 154q130 0 211 -23t127 -75.5t67 -142.5l57 -231v-123h-717zM202 131h140v111h-103q-19 0 -28 -7.5t-9 -23.5v-80zM79 131q0 73 8.5 118.5t29.5 68.5t58.5 30.5t95.5 7.5q59 0 97 -7.5
t59.5 -30.5t30 -68t8.5 -119h-387zM0 0q-10 0 -15 21t-5 58q0 36 5 57.5t15 21.5v-158zM767 0v158q10 0 15 -21.5t5 -57.5q0 -37 -5 -58t-15 -21z" />
    <glyph glyph-name="uniFBAC" unicode="&#x6be;" horiz-adv-x="767" arabic-form="initial" 
d="M0 0v158h563l-34 140q-13 49 -42 80.5t-86 47t-154 15.5l8 154q130 0 211 -23t127 -75.5t67 -142.5l57 -231v-123h-717zM202 131h140v111h-103q-19 0 -28 -7.5t-9 -23.5v-80zM79 131q0 73 8.5 118.5t29.5 68.5t58.5 30.5t95.5 7.5q59 0 97 -7.5t59.5 -30.5t30 -68
t8.5 -119h-387zM0 0q-10 0 -15 21t-5 58q0 36 5 57.5t15 21.5v-158z" />
    <glyph glyph-name="uniFE94" unicode="&#x629;" horiz-adv-x="639" arabic-form="final" 
d="M561 0v158h78v-158h-78zM299 0q-71 0 -116.5 10t-71 35.5t-35.5 71.5t-10 118t10 118t35.5 71.5t71 35.5t116.5 10h263v-470h-263zM259 158h163v154h-163q-22 0 -32.5 -9.5t-10.5 -27.5v-80q0 -18 10.5 -27.5t32.5 -9.5zM639 0v158q9 0 14.5 -21.5t5.5 -57.5
q0 -37 -5.5 -58t-14.5 -21zM246 586q-14 0 -32.5 13.5t-32 32t-13.5 32.5q0 15 13.5 33t31.5 31.5t33 13.5t33 -13.5t31.5 -31.5t13.5 -33q0 -14 -14 -32.5t-32 -32t-32 -13.5zM426 586q-14 0 -32.5 13.5t-32 32t-13.5 32.5q0 15 13.5 33t31.5 31.5t33 13.5t33 -13.5
t31.5 -31.5t13.5 -33q0 -14 -14 -32.5t-32 -32t-32 -13.5z" />
    <glyph glyph-name="uni06C3.fina" unicode="&#x6c3;" horiz-adv-x="669" 
d="M72 0v317q0 59 23 95.5t76 54t144 17.5q50 0 96.5 -3.5t91 -11t88.5 -18.5l-17 -151q-35 9 -72 14.5t-78 8t-90 2.5q-32 0 -66 -1t-55 -4v-320h-141zM451 0v451h140v-293h78v-158h-218zM669 0v158q9 0 14.5 -21.5t5.5 -57.5q0 -37 -5.5 -58t-14.5 -21zM245 586
q-14 0 -32.5 13.5t-32 32t-13.5 32.5q0 15 13.5 33t31.5 31.5t33 13.5t33 -13.5t31.5 -31.5t13.5 -33q0 -14 -14 -32.5t-32 -32t-32 -13.5zM425 586q-14 0 -32.5 13.5t-32 32t-13.5 32.5q0 15 13.5 33t31.5 31.5t33 13.5t33 -13.5t31.5 -31.5t13.5 -33q0 -14 -14 -32.5
t-32 -32t-32 -13.5z" />
    <glyph glyph-name="uniFEEE" unicode="&#x648;" horiz-adv-x="626" arabic-form="final" 
d="M479 0v158h147v-158h-147zM260 0q-53 0 -91.5 13.5t-63 43t-36 77t-11.5 114.5q0 63 14.5 108.5t43.5 73.5t76.5 41t113.5 13q74 0 127.5 -8.5t105.5 -29.5v-288l-77 -158h-202zM319 -279l-94 104q38 32 70 72.5t55 85t35.5 89t12.5 86.5h141q0 -56 -16 -115.5
t-45 -116.5t-69.5 -109.5t-89.5 -95.5zM208 158h149q23 0 32 9t9 32v126h-134q-33 0 -44.5 -8.5t-11.5 -33.5v-125zM626 0v158q10 0 15 -21.5t5 -57.5q0 -37 -5 -58t-15 -21z" />
    <glyph glyph-name="uniFE86" unicode="&#x624;" horiz-adv-x="626" arabic-form="final" 
d="M479 0v158h147v-158h-147zM260 0q-53 0 -91.5 13.5t-63 43t-36 77t-11.5 114.5q0 63 14.5 108.5t43.5 73.5t76.5 41t113.5 13q74 0 127.5 -8.5t105.5 -29.5v-288l-77 -158h-202zM319 -279l-94 104q38 32 70 72.5t55 85t35.5 89t12.5 86.5h141q0 -56 -16 -115.5
t-45 -116.5t-69.5 -109.5t-89.5 -95.5zM208 158h149q23 0 32 9t9 32v126h-134q-33 0 -44.5 -8.5t-11.5 -33.5v-125zM626 0v158q10 0 15 -21.5t5 -57.5q0 -37 -5 -58t-15 -21zM189 576v65l38 11q-4 11 -5.5 24t-1.5 30q0 53 21.5 83.5t61.5 45t92 18.5v-76q-25 -3 -45.5 -7.5
t-42.5 -13.5l-1 -53q0 -16 8.5 -20.5t28.5 0.5l80 22v-67z" />
    <glyph glyph-name="uniFEF0" unicode="&#x649;" horiz-adv-x="878" arabic-form="final" 
d="M427 -286q-107 0 -178 11t-111.5 37t-58 72t-17.5 114q0 35 3.5 71t11.5 71t18 67l138 -23q-13 -41 -21.5 -80t-8.5 -78q0 -32 2 -57t8 -47h281q63 0 99 4.5t51.5 16t15.5 32.5v75h141v-51q0 -67 -17 -112t-58.5 -72t-115 -39t-183.5 -12zM648 0q-55 0 -116 8.5
t-115 24.5l21 151q51 -13 92.5 -19.5t83.5 -6.5h264v-158h-230zM878 0v158q10 0 15 -21.5t5 -57.5q0 -37 -5 -58t-15 -21z" />
    <glyph glyph-name="uniFEF2" unicode="&#x64a;" horiz-adv-x="878" arabic-form="final" 
d="M427 -286q-107 0 -178 11t-111.5 37t-58 72t-17.5 114q0 35 3.5 71t11.5 71t18 67l138 -23q-13 -41 -21.5 -80t-8.5 -78q0 -32 2 -57t8 -47h281q63 0 99 4.5t51.5 16t15.5 32.5v75h141v-51q0 -67 -17 -112t-58.5 -72t-115 -39t-183.5 -12zM648 0q-55 0 -116 8.5
t-115 24.5l21 151q51 -13 92.5 -19.5t83.5 -6.5h264v-158h-230zM878 0v158q10 0 15 -21.5t5 -57.5q0 -37 -5 -58t-15 -21zM346 -486q-14 0 -32.5 13.5t-32 32t-13.5 32.5q0 15 13.5 33t31.5 31.5t33 13.5t33 -13.5t31.5 -31.5t13.5 -33q0 -14 -14 -32.5t-32 -32t-32 -13.5z
M526 -486q-14 0 -32.5 13.5t-32 32t-13.5 32.5q0 15 13.5 33t31.5 31.5t33 13.5t33 -13.5t31.5 -31.5t13.5 -33q0 -14 -14 -32.5t-32 -32t-32 -13.5z" />
    <glyph glyph-name="uniFEF4" unicode="&#x64a;" horiz-adv-x="350" arabic-form="medial" 
d="M273 0v158h77v-158h-77zM0 0v158h205l-73 -72v384h141v-470h-273zM0 0q-10 0 -15 21t-5 58q0 36 5 57.5t15 21.5v-158zM350 0v158q10 0 15 -21.5t5 -57.5q0 -37 -5 -58t-15 -21zM112 -236q-14 0 -32.5 13.5t-32 32t-13.5 32.5q0 15 13.5 33t31.5 31.5t33 13.5t33 -13.5
t31.5 -31.5t13.5 -33q0 -14 -14 -32.5t-32 -32t-32 -13.5zM292 -236q-14 0 -32.5 13.5t-32 32t-13.5 32.5q0 15 13.5 33t31.5 31.5t33 13.5t33 -13.5t31.5 -31.5t13.5 -33q0 -14 -14 -32.5t-32 -32t-32 -13.5z" />
    <glyph glyph-name="uniFEF3" unicode="&#x64a;" horiz-adv-x="350" arabic-form="initial" 
d="M0 0v158h205l-73 -72v384h141v-470h-273zM0 0q-10 0 -15 21t-5 58q0 36 5 57.5t15 21.5v-158zM53 -227q-14 0 -32.5 13.5t-32 32t-13.5 32.5q0 15 13.5 33t31.5 31.5t33 13.5t33 -13.5t31.5 -31.5t13.5 -33q0 -14 -14 -32.5t-32 -32t-32 -13.5zM233 -227
q-14 0 -32.5 13.5t-32 32t-13.5 32.5q0 15 13.5 33t31.5 31.5t33 13.5t33 -13.5t31.5 -31.5t13.5 -33q0 -14 -14 -32.5t-32 -32t-32 -13.5z" />
    <glyph glyph-name="uniFE8A" unicode="&#x626;" horiz-adv-x="878" arabic-form="final" 
d="M427 -286q-107 0 -178 11t-111.5 37t-58 72t-17.5 114q0 35 3.5 71t11.5 71t18 67l138 -23q-13 -41 -21.5 -80t-8.5 -78q0 -32 2 -57t8 -47h281q63 0 99 4.5t51.5 16t15.5 32.5v75h141v-51q0 -67 -17 -112t-58.5 -72t-115 -39t-183.5 -12zM648 0q-55 0 -116 8.5
t-115 24.5l21 151q51 -13 92.5 -19.5t83.5 -6.5h264v-158h-230zM878 0v158q10 0 15 -21.5t5 -57.5q0 -37 -5 -58t-15 -21zM65 266v65l38 11q-4 11 -5.5 24t-1.5 30q0 53 21.5 83.5t61.5 45t92 18.5v-76q-25 -3 -45.5 -7.5t-42.5 -13.5l-1 -53q0 -16 8.5 -20.5t28.5 0.5
l80 22v-67z" />
    <glyph glyph-name="uniFE8C" unicode="&#x626;" horiz-adv-x="350" arabic-form="medial" 
d="M273 0v158h77v-158h-77zM0 0v158h205l-73 -72v384h141v-470h-273zM0 0q-10 0 -15 21t-5 58q0 36 5 57.5t15 21.5v-158zM350 0v158q10 0 15 -21.5t5 -57.5q0 -37 -5 -58t-15 -21zM86 576v65l38 11q-4 11 -5.5 24t-1.5 30q0 53 21.5 83.5t61.5 45t92 18.5v-76
q-25 -3 -45.5 -7.5t-42.5 -13.5l-1 -53q0 -16 8.5 -20.5t28.5 0.5l80 22v-67z" />
    <glyph glyph-name="uniFE8B" unicode="&#x626;" horiz-adv-x="350" arabic-form="initial" 
d="M0 0v158h205l-73 -72v384h141v-470h-273zM0 0q-10 0 -15 21t-5 58q0 36 5 57.5t15 21.5v-158zM86 576v65l38 11q-4 11 -5.5 24t-1.5 30q0 53 21.5 83.5t61.5 45t92 18.5v-76q-25 -3 -45.5 -7.5t-42.5 -13.5l-1 -53q0 -16 8.5 -20.5t28.5 0.5l80 22v-67z" />
    <glyph glyph-name="uniFBFD" unicode="&#x6cc;" horiz-adv-x="878" arabic-form="final" 
d="M427 -286q-107 0 -178 11t-111.5 37t-58 72t-17.5 114q0 35 3.5 71t11.5 71t18 67l138 -23q-13 -41 -21.5 -80t-8.5 -78q0 -32 2 -57t8 -47h281q63 0 99 4.5t51.5 16t15.5 32.5v75h141v-51q0 -67 -17 -112t-58.5 -72t-115 -39t-183.5 -12zM648 0q-55 0 -116 8.5
t-115 24.5l21 151q51 -13 92.5 -19.5t83.5 -6.5h264v-158h-230zM878 0v158q10 0 15 -21.5t5 -57.5q0 -37 -5 -58t-15 -21z" />
    <glyph glyph-name="uniFBFF" unicode="&#x6cc;" horiz-adv-x="350" arabic-form="medial" 
d="M273 0v158h77v-158h-77zM0 0v158h205l-73 -72v384h141v-470h-273zM0 0q-10 0 -15 21t-5 58q0 36 5 57.5t15 21.5v-158zM350 0v158q10 0 15 -21.5t5 -57.5q0 -37 -5 -58t-15 -21zM112 -236q-14 0 -32.5 13.5t-32 32t-13.5 32.5q0 15 13.5 33t31.5 31.5t33 13.5t33 -13.5
t31.5 -31.5t13.5 -33q0 -14 -14 -32.5t-32 -32t-32 -13.5zM292 -236q-14 0 -32.5 13.5t-32 32t-13.5 32.5q0 15 13.5 33t31.5 31.5t33 13.5t33 -13.5t31.5 -31.5t13.5 -33q0 -14 -14 -32.5t-32 -32t-32 -13.5z" />
    <glyph glyph-name="uniFBFE" unicode="&#x6cc;" horiz-adv-x="350" arabic-form="initial" 
d="M0 0v158h205l-73 -72v384h141v-470h-273zM0 0q-10 0 -15 21t-5 58q0 36 5 57.5t15 21.5v-158zM53 -227q-14 0 -32.5 13.5t-32 32t-13.5 32.5q0 15 13.5 33t31.5 31.5t33 13.5t33 -13.5t31.5 -31.5t13.5 -33q0 -14 -14 -32.5t-32 -32t-32 -13.5zM233 -227
q-14 0 -32.5 13.5t-32 32t-13.5 32.5q0 15 13.5 33t31.5 31.5t33 13.5t33 -13.5t31.5 -31.5t13.5 -33q0 -14 -14 -32.5t-32 -32t-32 -13.5z" />
    <glyph glyph-name="uniFBAF" unicode="&#x6d2;" horiz-adv-x="739" arabic-form="final" 
d="M347 -286q-95 0 -155.5 11t-92.5 38.5t-44.5 75t-12.5 119.5v42h141v-75q0 -21 18 -32.5t60 -16t114 -4.5q40 0 75 1.5t69 4.5t72 7.5t82 12.5l21 -151q-53 -11 -110 -18.5t-116 -11t-121 -3.5zM42 0v158h697v-158h-697zM739 0v158q10 0 15 -21.5t5 -57.5q0 -37 -5 -58
t-15 -21z" />
    <glyph glyph-name="uniFBB1" unicode="&#x6d3;" horiz-adv-x="739" arabic-form="final" 
d="M347 -286q-95 0 -155.5 11t-92.5 38.5t-44.5 75t-12.5 119.5v42h141v-75q0 -21 18 -32.5t60 -16t114 -4.5q40 0 75 1.5t69 4.5t72 7.5t82 12.5l21 -151q-53 -11 -110 -18.5t-116 -11t-121 -3.5zM42 0v158h697v-158h-697zM739 0v158q10 0 15 -21.5t5 -57.5q0 -37 -5 -58
t-15 -21zM84 301v65l38 11q-4 11 -5.5 24t-1.5 30q0 53 21.5 83.5t61.5 45t92 18.5v-76q-25 -3 -45.5 -7.5t-42.5 -13.5l-1 -53q0 -16 8.5 -20.5t28.5 0.5l80 22v-67z" />
    <glyph glyph-name=".notdef" horiz-adv-x="700" 
d="M30 0v625h640v-625h-640zM120 100h460v425h-460v-425z" />
    <glyph glyph-name="A" unicode="A" horiz-adv-x="619" 
d="M7 0l166 625h273l166 -625h-176l-122 457h-9l-122 -457h-176zM118 109v129h383v-129h-383z" />
    <glyph glyph-name="Aacute" unicode="&#xc1;" horiz-adv-x="619" 
d="M7 0l166 625h273l166 -625h-176l-122 457h-9l-122 -457h-176zM118 109v129h383v-129h-383zM239 670l-36 52l180 132q5 4 10 4q7 0 16 -10l58 -69q8 -10 8 -16q0 -7 -10 -16l-35 -30q-6 -5 -11 -7.5t-14 -4.5z" />
    <glyph glyph-name="Abreve" unicode="&#x102;" horiz-adv-x="619" 
d="M7 0l166 625h273l166 -625h-176l-122 457h-9l-122 -457h-176zM118 109v129h383v-129h-383zM310 679q-48 0 -88.5 32t-54.5 100l89 14q6 -22 21 -34t33 -12t33 12t21 34l89 -14q-15 -67 -55 -99.5t-88 -32.5z" />
    <glyph glyph-name="Acircumflex" unicode="&#xc2;" horiz-adv-x="619" 
d="M7 0l166 625h273l166 -625h-176l-122 457h-9l-122 -457h-176zM118 109v129h383v-129h-383zM219 667l-46 45l102 130q6 9 15 9h40q9 0 15 -9l102 -130l-46 -45l-91 70z" />
    <glyph glyph-name="Adieresis" unicode="&#xc4;" horiz-adv-x="619" 
d="M7 0l166 625h273l166 -625h-176l-122 457h-9l-122 -457h-176zM118 109v129h383v-129h-383zM412 683q-48 0 -63 17t-15 58t15 59.5t63 18.5q46 0 61 -18.5t15 -59.5t-15 -58t-61 -17zM209 683q-48 0 -62.5 17t-14.5 58t14.5 59.5t62.5 18.5q46 0 61 -18.5t15 -59.5
t-15 -58t-61 -17z" />
    <glyph glyph-name="Agrave" unicode="&#xc0;" horiz-adv-x="619" 
d="M7 0l166 625h273l166 -625h-176l-122 457h-9l-122 -457h-176zM118 109v129h383v-129h-383zM410 668l-165 35q-9 2 -14.5 4t-10.5 7l-36 31q-10 8 -10 16q0 6 9 16l58 69q8 9 16 9q5 0 10 -4l180 -132z" />
    <glyph glyph-name="Amacron" unicode="&#x100;" horiz-adv-x="619" 
d="M7 0l166 625h273l166 -625h-176l-122 457h-9l-122 -457h-176zM118 109v129h383v-129h-383zM218 697q-35 0 -43 13t-8 47v56h235q35 0 42.5 -11.5t7.5 -46.5v-58h-234z" />
    <glyph glyph-name="Aogonek" unicode="&#x104;" horiz-adv-x="619" 
d="M7 0l166 625h273l166 -625h-176l-122 457h-9l-122 -457h-176zM118 109v129h383v-129h-383zM535 -177q-45 0 -70.5 25t-25.5 68q0 47 40.5 78t115.5 40l10 -34l-13 -3q-22 -3 -29 -10.5t-7 -25.5v-9q0 -18 6.5 -25t23.5 -7h31l12 -74q-24 -12 -46.5 -17.5t-47.5 -5.5z" />
    <glyph glyph-name="Aring" unicode="&#xc5;" horiz-adv-x="619" 
d="M7 0l166 625h273l166 -625h-176l-122 457h-9l-122 -457h-176zM118 109v129h383v-129h-383zM310 655q-61 0 -86.5 28t-25.5 84q0 55 25.5 83t86.5 28q60 0 85.5 -28t25.5 -84q0 -55 -25.5 -83t-85.5 -28zM271 724h34q19 0 30.5 3.5t11.5 22.5v59h-31q-20 0 -32.5 -3.5
t-12.5 -21.5v-60z" />
    <glyph glyph-name="Aringacute" unicode="&#x1fa;" horiz-adv-x="619" 
d="M7 0l166 625h273l166 -625h-176l-122 457h-9l-122 -457h-176zM118 109v129h383v-129h-383zM310 655q-61 0 -86.5 28t-25.5 84q0 55 25.5 83t86.5 28q60 0 85.5 -28t25.5 -84q0 -55 -25.5 -83t-85.5 -28zM271 724h34q19 0 30.5 3.5t11.5 22.5v59h-31q-20 0 -32.5 -3.5
t-12.5 -21.5v-60zM239 903l-36 52l180 132q5 4 10 4q7 0 16 -10l58 -69q8 -10 8 -16q0 -7 -10 -16l-35 -30q-6 -5 -11 -7.5t-14 -4.5z" />
    <glyph glyph-name="Atilde" unicode="&#xc3;" horiz-adv-x="619" 
d="M7 0l166 625h273l166 -625h-176l-122 457h-9l-122 -457h-176zM118 109v129h383v-129h-383zM324 673q-12 0 -22.5 4t-22.5 13.5t-27 27.5l-78 -39l-39 65q57 41 87.5 61t46 27t27.5 7q13 0 23.5 -4t21.5 -13.5t27 -27.5l78 38l39 -65q-56 -39 -86.5 -59.5t-46 -27.5
t-28.5 -7z" />
    <glyph glyph-name="AE" unicode="&#xc6;" horiz-adv-x="819" 
d="M7 0l162 625h564l-22 -143h-225l28 -108h179v-131h-144l25 -100h210v-143h-358l-26 108h-181l-26 -108h-186zM251 251h116l-48 206h-19z" />
    <glyph glyph-name="AEacute" unicode="&#x1fc;" horiz-adv-x="819" 
d="M7 0l162 625h564l-22 -143h-225l28 -108h179v-131h-144l25 -100h210v-143h-358l-26 108h-181l-26 -108h-186zM251 251h116l-48 206h-19zM338 670l-36 52l180 132q5 4 10 4q7 0 16 -10l58 -69q8 -10 8 -16q0 -7 -10 -16l-35 -30q-6 -5 -11 -7.5t-14 -4.5z" />
    <glyph glyph-name="B" unicode="B" horiz-adv-x="590" 
d="M60 625h273q105 0 151.5 -38.5t46.5 -124.5q0 -46 -17.5 -84t-49.5 -57v-6q43 -12 70.5 -50.5t27.5 -88.5q0 -85 -50 -130.5t-145 -45.5h-307v625zM236 55l-73 73h165q30 0 42 14.5t12 50.5q0 34 -11.5 48t-41.5 14h-109v123h84q30 0 40.5 12.5t10.5 47.5t-10 47t-40 12
h-142l73 73v-515z" />
    <glyph glyph-name="C" unicode="C" horiz-adv-x="505" 
d="M484 11q-38 -13 -81 -19.5t-101 -6.5q-76 0 -127 16t-81 53.5t-43 100.5t-13 157t14 157.5t46 101t86 53.5t135 16q27 0 58.5 -3t59.5 -9t44 -13l-22 -140q-21 7 -46 10.5t-48.5 6t-39.5 2.5q-55 0 -76.5 -14t-21.5 -57v-279q23 -5 45 -7.5t44 -2.5q41 0 82 6.5t72 17.5z
" />
    <glyph glyph-name="Cacute" unicode="&#x106;" horiz-adv-x="505" 
d="M484 11q-38 -13 -81 -19.5t-101 -6.5q-76 0 -127 16t-81 53.5t-43 100.5t-13 157t14 157.5t46 101t86 53.5t135 16q27 0 58.5 -3t59.5 -9t44 -13l-22 -140q-21 7 -46 10.5t-48.5 6t-39.5 2.5q-55 0 -76.5 -14t-21.5 -57v-279q23 -5 45 -7.5t44 -2.5q41 0 82 6.5t72 17.5z
M221 670l-36 52l180 132q5 4 10 4q7 0 16 -10l58 -69q8 -10 8 -16q0 -7 -10 -16l-35 -30q-6 -5 -11 -7.5t-14 -4.5z" />
    <glyph glyph-name="Ccaron" unicode="&#x10c;" horiz-adv-x="505" 
d="M484 11q-38 -13 -81 -19.5t-101 -6.5q-76 0 -127 16t-81 53.5t-43 100.5t-13 157t14 157.5t46 101t86 53.5t135 16q27 0 58.5 -3t59.5 -9t44 -13l-22 -140q-21 7 -46 10.5t-48.5 6t-39.5 2.5q-55 0 -76.5 -14t-21.5 -57v-279q23 -5 45 -7.5t44 -2.5q41 0 82 6.5t72 17.5z
M202 851l91 -71l91 71l46 -46l-102 -130q-6 -8 -15 -8h-40q-9 0 -15 8l-102 130z" />
    <glyph glyph-name="Ccedilla" unicode="&#xc7;" horiz-adv-x="505" 
d="M484 11q-38 -13 -81 -19.5t-101 -6.5q-76 0 -127 16t-81 53.5t-43 100.5t-13 157t14 157.5t46 101t86 53.5t135 16q27 0 58.5 -3t59.5 -9t44 -13l-22 -140q-21 7 -46 10.5t-48.5 6t-39.5 2.5q-55 0 -76.5 -14t-21.5 -57v-279q23 -5 45 -7.5t44 -2.5q41 0 82 6.5t72 17.5z
M254 -177q-51 0 -96 18l10 79h26q27 0 35 7t8 32v62h51q33 -13 53.5 -42t20.5 -62q0 -43 -29.5 -68.5t-78.5 -25.5z" />
    <glyph glyph-name="Ccircumflex" unicode="&#x108;" horiz-adv-x="505" 
d="M484 11q-38 -13 -81 -19.5t-101 -6.5q-76 0 -127 16t-81 53.5t-43 100.5t-13 157t14 157.5t46 101t86 53.5t135 16q27 0 58.5 -3t59.5 -9t44 -13l-22 -140q-21 7 -46 10.5t-48.5 6t-39.5 2.5q-55 0 -76.5 -14t-21.5 -57v-279q23 -5 45 -7.5t44 -2.5q41 0 82 6.5t72 17.5z
M202 667l-46 45l102 130q6 9 15 9h40q9 0 15 -9l102 -130l-46 -45l-91 70z" />
    <glyph glyph-name="Cdotaccent" unicode="&#x10a;" horiz-adv-x="505" 
d="M484 11q-38 -13 -81 -19.5t-101 -6.5q-76 0 -127 16t-81 53.5t-43 100.5t-13 157t14 157.5t46 101t86 53.5t135 16q27 0 58.5 -3t59.5 -9t44 -13l-22 -140q-21 7 -46 10.5t-48.5 6t-39.5 2.5q-55 0 -76.5 -14t-21.5 -57v-279q23 -5 45 -7.5t44 -2.5q41 0 82 6.5t72 17.5z
M293 678q-55 0 -75.5 19.5t-20.5 74.5q0 56 20.5 76t75.5 20q54 0 74 -20t20 -76q0 -55 -19 -74.5t-75 -19.5z" />
    <glyph glyph-name="D" unicode="D" horiz-adv-x="648" 
d="M60 625h265q85 0 140 -14.5t86.5 -49t44.5 -95.5t13 -154q0 -92 -13 -153t-44.5 -96t-86.5 -49t-140 -14h-265v625zM236 487v-349h106q44 0 61 14.5t17 51.5v217q0 37 -17 51.5t-61 14.5h-106z" />
    <glyph glyph-name="Eth" unicode="&#xd0;" horiz-adv-x="648" 
d="M60 625h265q85 0 140 -14.5t86.5 -49t44.5 -95.5t13 -154q0 -92 -13 -153t-44.5 -96t-86.5 -49t-140 -14h-265v625zM236 487v-349h106q44 0 61 14.5t17 51.5v217q0 37 -17 51.5t-61 14.5h-106zM7 321q0 31 11.5 42.5t42.5 11.5h267v-69q0 -31 -11.5 -42.5t-42.5 -11.5
h-267v69z" />
    <glyph glyph-name="Dcaron" unicode="&#x10e;" horiz-adv-x="648" 
d="M60 625h265q85 0 140 -14.5t86.5 -49t44.5 -95.5t13 -154q0 -92 -13 -153t-44.5 -96t-86.5 -49t-140 -14h-265v625zM236 487v-349h106q44 0 61 14.5t17 51.5v217q0 37 -17 51.5t-61 14.5h-106zM233 851l91 -71l91 71l46 -46l-102 -130q-6 -8 -15 -8h-40q-9 0 -15 8
l-102 130z" />
    <glyph glyph-name="Dcroat" unicode="&#x110;" horiz-adv-x="648" 
d="M60 625h265q85 0 140 -14.5t86.5 -49t44.5 -95.5t13 -154q0 -92 -13 -153t-44.5 -96t-86.5 -49t-140 -14h-265v625zM236 487v-349h106q44 0 61 14.5t17 51.5v217q0 37 -17 51.5t-61 14.5h-106zM7 321q0 31 11.5 42.5t42.5 11.5h267v-69q0 -31 -11.5 -42.5t-42.5 -11.5
h-267v69z" />
    <glyph glyph-name="E" unicode="E" horiz-adv-x="519" 
d="M236 248v-103h244v-145h-420v625h423l-22 -145h-225v-103h208v-129h-208z" />
    <glyph glyph-name="Eacute" unicode="&#xc9;" horiz-adv-x="519" 
d="M236 248v-103h244v-145h-420v625h423l-22 -145h-225v-103h208v-129h-208zM205 670l-36 52l180 132q5 4 10 4q7 0 16 -10l58 -69q8 -10 8 -16q0 -7 -10 -16l-35 -30q-6 -5 -11 -7.5t-14 -4.5z" />
    <glyph glyph-name="Ebreve" unicode="&#x114;" horiz-adv-x="519" 
d="M236 248v-103h244v-145h-420v625h423l-22 -145h-225v-103h208v-129h-208zM276 679q-48 0 -88.5 32t-54.5 100l89 14q6 -22 21 -34t33 -12t33 12t21 34l89 -14q-15 -67 -55 -99.5t-88 -32.5z" />
    <glyph glyph-name="Ecaron" unicode="&#x11a;" horiz-adv-x="519" 
d="M236 248v-103h244v-145h-420v625h423l-22 -145h-225v-103h208v-129h-208zM185 851l91 -71l91 71l46 -46l-102 -130q-6 -8 -15 -8h-40q-9 0 -15 8l-102 130z" />
    <glyph glyph-name="Ecircumflex" unicode="&#xca;" horiz-adv-x="519" 
d="M236 248v-103h244v-145h-420v625h423l-22 -145h-225v-103h208v-129h-208zM185 667l-46 45l102 130q6 9 15 9h40q9 0 15 -9l102 -130l-46 -45l-91 70z" />
    <glyph glyph-name="Edieresis" unicode="&#xcb;" horiz-adv-x="519" 
d="M236 248v-103h244v-145h-420v625h423l-22 -145h-225v-103h208v-129h-208zM379 683q-48 0 -63 17t-15 58t15 59.5t63 18.5q46 0 61 -18.5t15 -59.5t-15 -58t-61 -17zM176 683q-48 0 -62.5 17t-14.5 58t14.5 59.5t62.5 18.5q46 0 61 -18.5t15 -59.5t-15 -58t-61 -17z" />
    <glyph glyph-name="Edotaccent" unicode="&#x116;" horiz-adv-x="519" 
d="M236 248v-103h244v-145h-420v625h423l-22 -145h-225v-103h208v-129h-208zM277 678q-55 0 -75.5 19.5t-20.5 74.5q0 56 20.5 76t75.5 20q54 0 74 -20t20 -76q0 -55 -19 -74.5t-75 -19.5z" />
    <glyph glyph-name="Egrave" unicode="&#xc8;" horiz-adv-x="519" 
d="M236 248v-103h244v-145h-420v625h423l-22 -145h-225v-103h208v-129h-208zM376 668l-165 35q-9 2 -14.5 4t-10.5 7l-36 31q-10 8 -10 16q0 6 9 16l58 69q8 9 16 9q5 0 10 -4l180 -132z" />
    <glyph glyph-name="Emacron" unicode="&#x112;" horiz-adv-x="519" 
d="M236 248v-103h244v-145h-420v625h423l-22 -145h-225v-103h208v-129h-208zM184 697q-35 0 -43 13t-8 47v56h235q35 0 42.5 -11.5t7.5 -46.5v-58h-234z" />
    <glyph glyph-name="Eogonek" unicode="&#x118;" horiz-adv-x="519" 
d="M236 248v-103h244v-145h-420v625h423l-22 -145h-225v-103h208v-129h-208zM410 -177q-45 0 -70.5 25t-25.5 68q0 47 40.5 78t115.5 40l10 -34l-13 -3q-22 -3 -29 -10.5t-7 -25.5v-9q0 -18 6.5 -25t23.5 -7h31l12 -74q-24 -12 -46.5 -17.5t-47.5 -5.5z" />
    <glyph glyph-name="F" unicode="F" horiz-adv-x="465" 
d="M236 230v-230h-176v625h393l-22 -145h-195v-121h177v-129h-177z" />
    <glyph glyph-name="G" unicode="G" horiz-adv-x="574" 
d="M290 -15q-74 0 -123 15t-77 51.5t-40 100t-12 160.5q0 96 13.5 159.5t45.5 100.5t86.5 52.5t137.5 15.5q31 0 68.5 -3t70.5 -9t51 -13l-22 -140q-26 7 -56 10.5t-58 6t-49 2.5q-55 0 -77 -14t-22 -57v-296h298l14 -99q-50 -23 -109 -33t-140 -10zM374 30v208h-62v129h227
v-339z" />
    <glyph glyph-name="Gbreve" unicode="&#x11e;" horiz-adv-x="574" 
d="M290 -15q-74 0 -123 15t-77 51.5t-40 100t-12 160.5q0 96 13.5 159.5t45.5 100.5t86.5 52.5t137.5 15.5q31 0 68.5 -3t70.5 -9t51 -13l-22 -140q-26 7 -56 10.5t-58 6t-49 2.5q-55 0 -77 -14t-22 -57v-296h298l14 -99q-50 -23 -109 -33t-140 -10zM374 30v208h-62v129h227
v-339zM314 679q-48 0 -88.5 32t-54.5 100l89 14q6 -22 21 -34t33 -12t33 12t21 34l89 -14q-15 -67 -55 -99.5t-88 -32.5z" />
    <glyph glyph-name="Gcircumflex" unicode="&#x11c;" horiz-adv-x="574" 
d="M290 -15q-74 0 -123 15t-77 51.5t-40 100t-12 160.5q0 96 13.5 159.5t45.5 100.5t86.5 52.5t137.5 15.5q31 0 68.5 -3t70.5 -9t51 -13l-22 -140q-26 7 -56 10.5t-58 6t-49 2.5q-55 0 -77 -14t-22 -57v-296h298l14 -99q-50 -23 -109 -33t-140 -10zM374 30v208h-62v129h227
v-339zM223 667l-46 45l102 130q6 9 15 9h40q9 0 15 -9l102 -130l-46 -45l-91 70z" />
    <glyph glyph-name="uni0122" unicode="&#x122;" horiz-adv-x="574" 
d="M290 -15q-74 0 -123 15t-77 51.5t-40 100t-12 160.5q0 96 13.5 159.5t45.5 100.5t86.5 52.5t137.5 15.5q31 0 68.5 -3t70.5 -9t51 -13l-22 -140q-26 7 -56 10.5t-58 6t-49 2.5q-55 0 -77 -14t-22 -57v-296h298l14 -99q-50 -23 -109 -33t-140 -10zM374 30v208h-62v129h227
v-339zM309 -321l-67 20l24 102q-33 5 -46.5 20t-13.5 49q0 52 19 71t69 19q49 0 68 -19t19 -71q0 -27 -8 -51.5t-24 -60.5z" />
    <glyph glyph-name="Gdotaccent" unicode="&#x120;" horiz-adv-x="574" 
d="M290 -15q-74 0 -123 15t-77 51.5t-40 100t-12 160.5q0 96 13.5 159.5t45.5 100.5t86.5 52.5t137.5 15.5q31 0 68.5 -3t70.5 -9t51 -13l-22 -140q-26 7 -56 10.5t-58 6t-49 2.5q-55 0 -77 -14t-22 -57v-296h298l14 -99q-50 -23 -109 -33t-140 -10zM374 30v208h-62v129h227
v-339zM315 678q-55 0 -75.5 19.5t-20.5 74.5q0 56 20.5 76t75.5 20q54 0 74 -20t20 -76q0 -55 -19 -74.5t-75 -19.5z" />
    <glyph glyph-name="H" unicode="H" horiz-adv-x="648" 
d="M236 0h-176v625h176v-625zM412 625h176v-625h-176v625zM428 247h-208v129h208v-129z" />
    <glyph glyph-name="Hbar" unicode="&#x126;" horiz-adv-x="648" 
d="M236 0h-176v625h176v-625zM412 625h176v-625h-176v625zM428 247h-208v129h208v-129zM-4 500q0 32 11.5 43.5t42.5 11.5h603v-59q0 -31 -12 -42.5t-43 -11.5h-602v58z" />
    <glyph glyph-name="Hcircumflex" unicode="&#x124;" horiz-adv-x="648" 
d="M236 0h-176v625h176v-625zM412 625h176v-625h-176v625zM428 247h-208v129h208v-129zM233 667l-46 45l102 130q6 9 15 9h40q9 0 15 -9l102 -130l-46 -45l-91 70z" />
    <glyph glyph-name="I" unicode="I" horiz-adv-x="295" 
d="M60 625h176v-625h-176v625z" />
    <glyph glyph-name="IJ" unicode="&#x132;" horiz-adv-x="677" 
d="M60 625h176v-625h-176v625zM307 145h86q20 0 34 4.5t14 25.5v305h-100v145h276v-467q0 -54 -18 -89t-52.5 -52t-84.5 -17h-136z" />
    <glyph glyph-name="Iacute" unicode="&#xcd;" horiz-adv-x="295" 
d="M60 625h176v-625h-176v625zM76 670l-36 52l180 132q5 4 10 4q7 0 16 -10l58 -69q8 -10 8 -16q0 -7 -10 -16l-35 -30q-6 -5 -11 -7.5t-14 -4.5z" />
    <glyph glyph-name="Ibreve" unicode="&#x12c;" horiz-adv-x="295" 
d="M60 625h176v-625h-176v625zM148 679q-48 0 -88.5 32t-54.5 100l89 14q6 -22 21 -34t33 -12t33 12t21 34l89 -14q-15 -67 -55 -99.5t-88 -32.5z" />
    <glyph glyph-name="Icircumflex" unicode="&#xce;" horiz-adv-x="295" 
d="M60 625h176v-625h-176v625zM57 667l-46 45l102 130q6 9 15 9h40q9 0 15 -9l102 -130l-46 -45l-91 70z" />
    <glyph glyph-name="Idieresis" unicode="&#xcf;" horiz-adv-x="295" 
d="M60 625h176v-625h-176v625zM250 683q-48 0 -63 17t-15 58t15 59.5t63 18.5q46 0 61 -18.5t15 -59.5t-15 -58t-61 -17zM47 683q-48 0 -62.5 17t-14.5 58t14.5 59.5t62.5 18.5q46 0 61 -18.5t15 -59.5t-15 -58t-61 -17z" />
    <glyph glyph-name="Idotaccent" unicode="&#x130;" horiz-adv-x="295" 
d="M60 625h176v-625h-176v625zM148 678q-55 0 -75.5 19.5t-20.5 74.5q0 56 20.5 76t75.5 20q54 0 74 -20t20 -76q0 -55 -19 -74.5t-75 -19.5z" />
    <glyph glyph-name="Igrave" unicode="&#xcc;" horiz-adv-x="295" 
d="M60 625h176v-625h-176v625zM247 668l-165 35q-9 2 -14.5 4t-10.5 7l-36 31q-10 8 -10 16q0 6 9 16l58 69q8 9 16 9q5 0 10 -4l180 -132z" />
    <glyph glyph-name="Imacron" unicode="&#x12a;" horiz-adv-x="295" 
d="M60 625h176v-625h-176v625zM56 697q-35 0 -43 13t-8 47v56h235q35 0 42.5 -11.5t7.5 -46.5v-58h-234z" />
    <glyph glyph-name="Iogonek" unicode="&#x12e;" horiz-adv-x="295" 
d="M60 625h176v-625h-176v625zM166 -177q-45 0 -70.5 25t-25.5 68q0 47 40.5 78t115.5 40l10 -34l-13 -3q-22 -3 -29 -10.5t-7 -25.5v-9q0 -18 6.5 -25t23.5 -7h31l12 -74q-24 -12 -46.5 -17.5t-47.5 -5.5z" />
    <glyph glyph-name="Itilde" unicode="&#x128;" horiz-adv-x="295" 
d="M60 625h176v-625h-176v625zM162 673q-12 0 -22.5 4t-22.5 13.5t-27 27.5l-78 -39l-39 65q57 41 87.5 61t46 27t27.5 7q13 0 23.5 -4t21.5 -13.5t27 -27.5l78 38l39 -65q-56 -39 -86.5 -59.5t-46 -27.5t-28.5 -7z" />
    <glyph glyph-name="J" unicode="J" horiz-adv-x="381" 
d="M12 145h86q20 0 34 4.5t14 25.5v305h-100v145h276v-467q0 -54 -18 -89t-52.5 -52t-84.5 -17h-136z" />
    <glyph glyph-name="Jcircumflex" unicode="&#x134;" horiz-adv-x="381" 
d="M12 145h86q20 0 34 4.5t14 25.5v305h-100v145h276v-467q0 -54 -18 -89t-52.5 -52t-84.5 -17h-136zM100 667l-46 45l102 130q6 9 15 9h40q9 0 15 -9l102 -130l-46 -45l-91 70z" />
    <glyph glyph-name="K" unicode="K" horiz-adv-x="602" 
d="M408 0l-77 165q-13 27 -21 50t-8 41h-82v130h82q0 18 7.5 41t21.5 50l72 148h188l-148 -304l153 -321h-188zM60 0v625h176v-625h-176z" />
    <glyph glyph-name="uni0136" unicode="&#x136;" horiz-adv-x="602" 
d="M408 0l-77 165q-13 27 -21 50t-8 41h-82v130h82q0 18 7.5 41t21.5 50l72 148h188l-148 -304l153 -321h-188zM60 0v625h176v-625h-176zM329 -321l-67 20l24 102q-33 5 -46.5 20t-13.5 49q0 52 19 71t69 19q49 0 68 -19t19 -71q0 -27 -8 -51.5t-24 -60.5z" />
    <glyph glyph-name="L" unicode="L" horiz-adv-x="441" 
d="M60 0v625h176v-480h199v-145h-375z" />
    <glyph glyph-name="Lacute" unicode="&#x139;" horiz-adv-x="441" 
d="M60 0v625h176v-480h199v-145h-375zM76 670l-36 52l180 132q5 4 10 4q7 0 16 -10l58 -69q8 -10 8 -16q0 -7 -10 -16l-35 -30q-6 -5 -11 -7.5t-14 -4.5z" />
    <glyph glyph-name="Lcaron" unicode="&#x13d;" horiz-adv-x="441" 
d="M60 0v625h176v-480h199v-145h-375zM271 -321l-67 20l24 102q-33 5 -46.5 20t-13.5 49q0 52 19 71t69 19q49 0 68 -19t19 -71q0 -27 -8 -51.5t-24 -60.5z" />
    <glyph glyph-name="uni013B" unicode="&#x13b;" horiz-adv-x="441" 
d="M60 0v625h176v-480h199v-145h-375zM271 -321l-67 20l24 102q-33 5 -46.5 20t-13.5 49q0 52 19 71t69 19q49 0 68 -19t19 -71q0 -27 -8 -51.5t-24 -60.5z" />
    <glyph glyph-name="Ldot" unicode="&#x13f;" horiz-adv-x="441" 
d="M60 0v625h176v-480h199v-145h-375zM292 351.797q0 41.5996 15.1992 59.999q15.2002 18.3994 63.1992 18.3994t63.1992 -18.3994q15.1992 -18.3994 15.1992 -59.999t-15.1992 -59.1992q-15.2002 -17.5996 -63.1992 -17.5996t-63.1992 17.5996
q-15.1992 17.5996 -15.1992 59.1992z" />
    <glyph glyph-name="Lslash" unicode="&#x141;" horiz-adv-x="441" 
d="M60 0v625h176v-480h199v-145h-375zM9 255l-13 37q-8 25 -8 40q0 21 24 29l271 90l13 -37q8 -25 8 -41q0 -20 -24 -28z" />
    <glyph glyph-name="M" unicode="M" horiz-adv-x="807" 
d="M45 0l38 625h224l93 -354h7l93 354h224l38 -625h-175l-19 349h-7l-89 -349h-136l-90 349h-6l-20 -349h-175z" />
    <glyph glyph-name="N" unicode="N" horiz-adv-x="672" 
d="M65 0v625h173l162 -260q14 -23 19.5 -38.5t5.5 -30.5h6v329h176v-625h-174l-161 260q-14 23 -19.5 39t-5.5 30h-6v-329h-176z" />
    <glyph glyph-name="Nacute" unicode="&#x143;" horiz-adv-x="672" 
d="M65 0v625h173l162 -260q14 -23 19.5 -38.5t5.5 -30.5h6v329h176v-625h-174l-161 260q-14 23 -19.5 39t-5.5 30h-6v-329h-176zM267 670l-36 52l180 132q5 4 10 4q7 0 16 -10l58 -69q8 -10 8 -16q0 -7 -10 -16l-35 -30q-6 -5 -11 -7.5t-14 -4.5z" />
    <glyph glyph-name="Ncaron" unicode="&#x147;" horiz-adv-x="672" 
d="M65 0v625h173l162 -260q14 -23 19.5 -38.5t5.5 -30.5h6v329h176v-625h-174l-161 260q-14 23 -19.5 39t-5.5 30h-6v-329h-176zM248 851l91 -71l91 71l46 -46l-102 -130q-6 -8 -15 -8h-40q-9 0 -15 8l-102 130z" />
    <glyph glyph-name="uni0145" unicode="&#x145;" horiz-adv-x="672" 
d="M65 0v625h173l162 -260q14 -23 19.5 -38.5t5.5 -30.5h6v329h176v-625h-174l-161 260q-14 23 -19.5 39t-5.5 30h-6v-329h-176zM351 -321l-67 20l24 102q-33 5 -46.5 20t-13.5 49q0 52 19 71t69 19q49 0 68 -19t19 -71q0 -27 -8 -51.5t-24 -60.5z" />
    <glyph glyph-name="Eng" unicode="&#x14a;" horiz-adv-x="672" 
d="M65 0v625h173l162 -260q14 -23 19.5 -38.5t5.5 -30.5h6v329h176v-625h-174l-161 260q-14 23 -19.5 39t-5.5 30h-6v-329h-176zM441 -179q-28 0 -59.5 4.5t-57.5 10.5l8 109q37 0 57 5t27.5 19t7.5 39v471l176 23v-525q0 -80 -38.5 -118t-120.5 -38z" />
    <glyph glyph-name="Ntilde" unicode="&#xd1;" horiz-adv-x="672" 
d="M65 0v625h173l162 -260q14 -23 19.5 -38.5t5.5 -30.5h6v329h176v-625h-174l-161 260q-14 23 -19.5 39t-5.5 30h-6v-329h-176zM353 673q-12 0 -22.5 4t-22.5 13.5t-27 27.5l-78 -39l-39 65q57 41 87.5 61t46 27t27.5 7q13 0 23.5 -4t21.5 -13.5t27 -27.5l78 38l39 -65
q-56 -39 -86.5 -59.5t-46 -27.5t-28.5 -7z" />
    <glyph glyph-name="O" unicode="O" horiz-adv-x="654" 
d="M38 312q0 95 14 158.5t47 100.5t89 53t139 16q84 0 139.5 -16t88.5 -53t47 -100.5t14 -158.5t-14 -158t-47 -100t-88.5 -53t-139.5 -16q-83 0 -139 16t-89 53t-47 100t-14 158zM227 135h119q46 0 63.5 13t17.5 45v297h-120q-45 0 -62.5 -13t-17.5 -45v-297z" />
    <glyph glyph-name="Oacute" unicode="&#xd3;" horiz-adv-x="654" 
d="M38 312q0 95 14 158.5t47 100.5t89 53t139 16q84 0 139.5 -16t88.5 -53t47 -100.5t14 -158.5t-14 -158t-47 -100t-88.5 -53t-139.5 -16q-83 0 -139 16t-89 53t-47 100t-14 158zM227 135h119q46 0 63.5 13t17.5 45v297h-120q-45 0 -62.5 -13t-17.5 -45v-297zM256 670
l-36 52l180 132q5 4 10 4q7 0 16 -10l58 -69q8 -10 8 -16q0 -7 -10 -16l-35 -30q-6 -5 -11 -7.5t-14 -4.5z" />
    <glyph glyph-name="Obreve" unicode="&#x14e;" horiz-adv-x="654" 
d="M38 312q0 95 14 158.5t47 100.5t89 53t139 16q84 0 139.5 -16t88.5 -53t47 -100.5t14 -158.5t-14 -158t-47 -100t-88.5 -53t-139.5 -16q-83 0 -139 16t-89 53t-47 100t-14 158zM227 135h119q46 0 63.5 13t17.5 45v297h-120q-45 0 -62.5 -13t-17.5 -45v-297zM327 679
q-48 0 -88.5 32t-54.5 100l89 14q6 -22 21 -34t33 -12t33 12t21 34l89 -14q-15 -67 -55 -99.5t-88 -32.5z" />
    <glyph glyph-name="Ocircumflex" unicode="&#xd4;" horiz-adv-x="654" 
d="M38 312q0 95 14 158.5t47 100.5t89 53t139 16q84 0 139.5 -16t88.5 -53t47 -100.5t14 -158.5t-14 -158t-47 -100t-88.5 -53t-139.5 -16q-83 0 -139 16t-89 53t-47 100t-14 158zM227 135h119q46 0 63.5 13t17.5 45v297h-120q-45 0 -62.5 -13t-17.5 -45v-297zM236 667
l-46 45l102 130q6 9 15 9h40q9 0 15 -9l102 -130l-46 -45l-91 70z" />
    <glyph glyph-name="Odieresis" unicode="&#xd6;" horiz-adv-x="654" 
d="M38 312q0 95 14 158.5t47 100.5t89 53t139 16q84 0 139.5 -16t88.5 -53t47 -100.5t14 -158.5t-14 -158t-47 -100t-88.5 -53t-139.5 -16q-83 0 -139 16t-89 53t-47 100t-14 158zM227 135h119q46 0 63.5 13t17.5 45v297h-120q-45 0 -62.5 -13t-17.5 -45v-297zM429 683
q-48 0 -63 17t-15 58t15 59.5t63 18.5q46 0 61 -18.5t15 -59.5t-15 -58t-61 -17zM226 683q-48 0 -62.5 17t-14.5 58t14.5 59.5t62.5 18.5q46 0 61 -18.5t15 -59.5t-15 -58t-61 -17z" />
    <glyph glyph-name="Ograve" unicode="&#xd2;" horiz-adv-x="654" 
d="M38 312q0 95 14 158.5t47 100.5t89 53t139 16q84 0 139.5 -16t88.5 -53t47 -100.5t14 -158.5t-14 -158t-47 -100t-88.5 -53t-139.5 -16q-83 0 -139 16t-89 53t-47 100t-14 158zM227 135h119q46 0 63.5 13t17.5 45v297h-120q-45 0 -62.5 -13t-17.5 -45v-297zM427 668
l-165 35q-9 2 -14.5 4t-10.5 7l-36 31q-10 8 -10 16q0 6 9 16l58 69q8 9 16 9q5 0 10 -4l180 -132z" />
    <glyph glyph-name="Ohungarumlaut" unicode="&#x150;" horiz-adv-x="654" 
d="M38 312q0 95 14 158.5t47 100.5t89 53t139 16q84 0 139.5 -16t88.5 -53t47 -100.5t14 -158.5t-14 -158t-47 -100t-88.5 -53t-139.5 -16q-83 0 -139 16t-89 53t-47 100t-14 158zM227 135h119q46 0 63.5 13t17.5 45v297h-120q-45 0 -62.5 -13t-17.5 -45v-297zM388 664
l-35 53l138 132q8 9 14 10q3 0 6.5 -2.5t8.5 -7.5l59 -70q4 -3 5.5 -7.5t1.5 -8.5q0 -3 -2 -7t-6 -8l-38 -35q-4 -3 -10.5 -6.5t-20.5 -7.5zM136 664l-36 53l139 132q8 9 14 10q3 0 6.5 -2.5t8.5 -7.5l59 -70q3 -3 5 -7.5t2 -8.5q0 -3 -2 -7t-6 -8l-39 -35q-3 -3 -9.5 -6.5
t-20.5 -7.5z" />
    <glyph glyph-name="Omacron" unicode="&#x14c;" horiz-adv-x="654" 
d="M38 312q0 95 14 158.5t47 100.5t89 53t139 16q84 0 139.5 -16t88.5 -53t47 -100.5t14 -158.5t-14 -158t-47 -100t-88.5 -53t-139.5 -16q-83 0 -139 16t-89 53t-47 100t-14 158zM227 135h119q46 0 63.5 13t17.5 45v297h-120q-45 0 -62.5 -13t-17.5 -45v-297zM235 697
q-35 0 -43 13t-8 47v56h235q35 0 42.5 -11.5t7.5 -46.5v-58h-234z" />
    <glyph glyph-name="Oslash" unicode="&#xd8;" horiz-adv-x="654" 
d="M38 312q0 95 14 158.5t47 100.5t89 53t139 16q84 0 139.5 -16t88.5 -53t47 -100.5t14 -158.5t-14 -158t-47 -100t-88.5 -53t-139.5 -16q-83 0 -139 16t-89 53t-47 100t-14 158zM227 135h119q46 0 63.5 13t17.5 45v297h-120q-45 0 -62.5 -13t-17.5 -45v-297zM214 -47.5
q-7 -16.499 -16.5 -21.999t-26.5 -5.5h-46l315 747.983q7 16.5 16.5 22q9.5 5.49902 26.5 5.49902h46z" />
    <glyph glyph-name="Oslashacute" unicode="&#x1fe;" horiz-adv-x="654" 
d="M38 312q0 95 14 158.5t47 100.5t89 53t139 16q84 0 139.5 -16t88.5 -53t47 -100.5t14 -158.5t-14 -158t-47 -100t-88.5 -53t-139.5 -16q-83 0 -139 16t-89 53t-47 100t-14 158zM227 135h119q46 0 63.5 13t17.5 45v297h-120q-45 0 -62.5 -13t-17.5 -45v-297zM214 -47.5
q-7 -16.499 -16.5 -21.999t-26.5 -5.5h-46l315 747.983q7 16.5 16.5 22q9.5 5.49902 26.5 5.49902h46zM256 670l-36 52l180 132q5 4 10 4q7 0 16 -10l58 -69q8 -10 8 -16q0 -7 -10 -16l-35 -30q-6 -5 -11 -7.5t-14 -4.5z" />
    <glyph glyph-name="Otilde" unicode="&#xd5;" horiz-adv-x="654" 
d="M38 312q0 95 14 158.5t47 100.5t89 53t139 16q84 0 139.5 -16t88.5 -53t47 -100.5t14 -158.5t-14 -158t-47 -100t-88.5 -53t-139.5 -16q-83 0 -139 16t-89 53t-47 100t-14 158zM227 135h119q46 0 63.5 13t17.5 45v297h-120q-45 0 -62.5 -13t-17.5 -45v-297zM341 673
q-12 0 -22.5 4t-22.5 13.5t-27 27.5l-78 -39l-39 65q57 41 87.5 61t46 27t27.5 7q13 0 23.5 -4t21.5 -13.5t27 -27.5l78 38l39 -65q-56 -39 -86.5 -59.5t-46 -27.5t-28.5 -7z" />
    <glyph glyph-name="OE" unicode="&#x152;" horiz-adv-x="886" 
d="M603 248v-103h244v-145h-420v625h423l-21 -145h-226v-103h209v-129h-209zM38 312q0 91 14 151.5t47 96t89 50.5t139 15h117v-625h-117q-83 0 -139 15t-89 50.5t-47 95.5t-14 151zM227 145h119q46 0 63.5 12.5t17.5 45.5v277h-120q-45 0 -62.5 -12.5t-17.5 -45.5v-277z
" />
    <glyph glyph-name="P" unicode="P" horiz-adv-x="576" 
d="M236 164v-164h-176v625h275q80 0 129.5 -22.5t72 -72.5t22.5 -131q0 -121 -50.5 -178t-158.5 -57h-114zM236 293h92q27 0 37 9t10 33v103q0 24 -10 33t-37 9h-92v-187z" />
    <glyph glyph-name="Thorn" unicode="&#xde;" horiz-adv-x="576" 
d="M335 543q80 0 129.5 -22.5t72 -72.5t22.5 -131q0 -121 -50.5 -178t-158.5 -57h-114v-82h-176v625h176v-82h99zM375 254v118q0 24 -10 33t-37 9h-92v-202h92q27 0 37 9t10 33z" />
    <glyph glyph-name="Q" unicode="Q" horiz-adv-x="644" 
d="M322 -15q-81 0 -135.5 16.5t-87 54t-47 100.5t-14.5 156t14.5 156.5t47 101t87 54t135.5 16.5t135.5 -16.5t87 -54t47 -101t14.5 -156.5q0 -82 -12 -137.5t-38.5 -90t-70.5 -54.5l-104 5zM228 135h110q45 0 62 13t17 45v297h-111q-45 0 -61.5 -13t-16.5 -45v-297z
M569 -77l-188 62v50l122 59l111 -70z" />
    <glyph glyph-name="R" unicode="R" horiz-adv-x="614" 
d="M236 191v-191h-176v625h280q80 0 129.5 -22.5t72 -72.5t22.5 -131q0 -108 -50 -158t-159 -50h-119zM236 320h97q27 0 37 9t10 33v76q0 24 -10 33t-37 9h-97v-160zM444 308l147 -308h-191l-107 226z" />
    <glyph glyph-name="Racute" unicode="&#x154;" horiz-adv-x="614" 
d="M236 191v-191h-176v625h280q80 0 129.5 -22.5t72 -72.5t22.5 -131q0 -108 -50 -158t-159 -50h-119zM236 320h97q27 0 37 9t10 33v76q0 24 -10 33t-37 9h-97v-160zM444 308l147 -308h-191l-107 226zM238 670l-36 52l180 132q5 4 10 4q7 0 16 -10l58 -69q8 -10 8 -16
q0 -7 -10 -16l-35 -30q-6 -5 -11 -7.5t-14 -4.5z" />
    <glyph glyph-name="Rcaron" unicode="&#x158;" horiz-adv-x="614" 
d="M236 191v-191h-176v625h280q80 0 129.5 -22.5t72 -72.5t22.5 -131q0 -108 -50 -158t-159 -50h-119zM236 320h97q27 0 37 9t10 33v76q0 24 -10 33t-37 9h-97v-160zM444 308l147 -308h-191l-107 226zM219 851l91 -71l91 71l46 -46l-102 -130q-6 -8 -15 -8h-40q-9 0 -15 8
l-102 130z" />
    <glyph glyph-name="uni0156" unicode="&#x156;" horiz-adv-x="614" 
d="M236 191v-191h-176v625h280q80 0 129.5 -22.5t72 -72.5t22.5 -131q0 -108 -50 -158t-159 -50h-119zM236 320h97q27 0 37 9t10 33v76q0 24 -10 33t-37 9h-97v-160zM444 308l147 -308h-191l-107 226zM323 -321l-67 20l24 102q-33 5 -46.5 20t-13.5 49q0 52 19 71t69 19
q49 0 68 -19t19 -71q0 -27 -8 -51.5t-24 -60.5z" />
    <glyph glyph-name="S" unicode="S" horiz-adv-x="563" 
d="M55 163q49 -15 100 -22.5t101 -7.5q26 0 46 1t43 5v86l-91 8q-60 5 -101.5 17.5t-66.5 35t-36 56t-11 81.5q0 80 22 127.5t74 68.5t139 21q118 0 227 -27l-22 -141q-50 10 -88 14.5t-79 4.5q-30 0 -47 -1t-37 -4v-86l82 -7q80 -7 129.5 -30t72 -64.5t22.5 -106.5
q0 -73 -26.5 -118.5t-83 -67t-147.5 -21.5q-67 0 -128.5 8t-118.5 25z" />
    <glyph glyph-name="Sacute" unicode="&#x15a;" horiz-adv-x="563" 
d="M55 163q49 -15 100 -22.5t101 -7.5q26 0 46 1t43 5v86l-91 8q-60 5 -101.5 17.5t-66.5 35t-36 56t-11 81.5q0 80 22 127.5t74 68.5t139 21q118 0 227 -27l-22 -141q-50 10 -88 14.5t-79 4.5q-30 0 -47 -1t-37 -4v-86l82 -7q80 -7 129.5 -30t72 -64.5t22.5 -106.5
q0 -73 -26.5 -118.5t-83 -67t-147.5 -21.5q-67 0 -128.5 8t-118.5 25zM210 670l-36 52l180 132q5 4 10 4q7 0 16 -10l58 -69q8 -10 8 -16q0 -7 -10 -16l-35 -30q-6 -5 -11 -7.5t-14 -4.5z" />
    <glyph glyph-name="Scaron" unicode="&#x160;" horiz-adv-x="563" 
d="M55 163q49 -15 100 -22.5t101 -7.5q26 0 46 1t43 5v86l-91 8q-60 5 -101.5 17.5t-66.5 35t-36 56t-11 81.5q0 80 22 127.5t74 68.5t139 21q118 0 227 -27l-22 -141q-50 10 -88 14.5t-79 4.5q-30 0 -47 -1t-37 -4v-86l82 -7q80 -7 129.5 -30t72 -64.5t22.5 -106.5
q0 -73 -26.5 -118.5t-83 -67t-147.5 -21.5q-67 0 -128.5 8t-118.5 25zM191 851l91 -71l91 71l46 -46l-102 -130q-6 -8 -15 -8h-40q-9 0 -15 8l-102 130z" />
    <glyph glyph-name="Scedilla" unicode="&#x15e;" horiz-adv-x="563" 
d="M55 163q49 -15 100 -22.5t101 -7.5q26 0 46 1t43 5v86l-91 8q-60 5 -101.5 17.5t-66.5 35t-36 56t-11 81.5q0 80 22 127.5t74 68.5t139 21q118 0 227 -27l-22 -141q-50 10 -88 14.5t-79 4.5q-30 0 -47 -1t-37 -4v-86l82 -7q80 -7 129.5 -30t72 -64.5t22.5 -106.5
q0 -73 -26.5 -118.5t-83 -67t-147.5 -21.5q-67 0 -128.5 8t-118.5 25zM256 -177q-51 0 -96 18l10 79h26q27 0 35 7t8 32v62h51q33 -13 53.5 -42t20.5 -62q0 -43 -29.5 -68.5t-78.5 -25.5z" />
    <glyph glyph-name="Scircumflex" unicode="&#x15c;" horiz-adv-x="563" 
d="M55 163q49 -15 100 -22.5t101 -7.5q26 0 46 1t43 5v86l-91 8q-60 5 -101.5 17.5t-66.5 35t-36 56t-11 81.5q0 80 22 127.5t74 68.5t139 21q118 0 227 -27l-22 -141q-50 10 -88 14.5t-79 4.5q-30 0 -47 -1t-37 -4v-86l82 -7q80 -7 129.5 -30t72 -64.5t22.5 -106.5
q0 -73 -26.5 -118.5t-83 -67t-147.5 -21.5q-67 0 -128.5 8t-118.5 25zM191 667l-46 45l102 130q6 9 15 9h40q9 0 15 -9l102 -130l-46 -45l-91 70z" />
    <glyph glyph-name="uni0218" unicode="&#x218;" horiz-adv-x="563" 
d="M55 163q49 -15 100 -22.5t101 -7.5q26 0 46 1t43 5v86l-91 8q-60 5 -101.5 17.5t-66.5 35t-36 56t-11 81.5q0 80 22 127.5t74 68.5t139 21q118 0 227 -27l-22 -141q-50 10 -88 14.5t-79 4.5q-30 0 -47 -1t-37 -4v-86l82 -7q80 -7 129.5 -30t72 -64.5t22.5 -106.5
q0 -73 -26.5 -118.5t-83 -67t-147.5 -21.5q-67 0 -128.5 8t-118.5 25zM297 -321l-67 20l24 102q-33 5 -46.5 20t-13.5 49q0 52 19 71t69 19q49 0 68 -19t19 -71q0 -27 -8 -51.5t-24 -60.5z" />
    <glyph glyph-name="T" unicode="T" horiz-adv-x="483" 
d="M329 480v-480h-176v480h-146v145h468v-145h-146z" />
    <glyph glyph-name="Tbar" unicode="&#x166;" horiz-adv-x="483" 
d="M329 480v-480h-176v480h-146v145h468v-145h-146zM81 288q0 31 11.5 42.5t42.5 11.5h267v-69q0 -31 -11.5 -42.5t-42.5 -11.5h-267v69z" />
    <glyph glyph-name="Tcaron" unicode="&#x164;" horiz-adv-x="483" 
d="M329 480v-480h-176v480h-146v145h468v-145h-146zM150 851l91 -71l91 71l46 -46l-102 -130q-6 -8 -15 -8h-40q-9 0 -15 8l-102 130z" />
    <glyph glyph-name="uni0162" unicode="&#x162;" horiz-adv-x="483" 
d="M329 480v-480h-176v480h-146v145h468v-145h-146zM215 -177q-51 0 -96 18l10 79h26q27 0 35 7t8 32v62h51q33 -13 53.5 -42t20.5 -62q0 -43 -29.5 -68.5t-78.5 -25.5z" />
    <glyph glyph-name="uni021A" unicode="&#x21a;" horiz-adv-x="483" 
d="M329 480v-480h-176v480h-146v145h468v-145h-146zM256 -321l-67 20l24 102q-33 5 -46.5 20t-13.5 49q0 52 19 71t69 19q49 0 68 -19t19 -71q0 -27 -8 -51.5t-24 -60.5z" />
    <glyph glyph-name="U" unicode="U" horiz-adv-x="635" 
d="M317 -15q-80 0 -132 11t-81.5 37t-41.5 72.5t-12 117.5v402h176v-490h95q36 0 55 4.5t26 16t7 32.5v437h176v-402q0 -70 -12 -116.5t-42 -73t-82 -37.5t-132 -11z" />
    <glyph glyph-name="Uacute" unicode="&#xda;" horiz-adv-x="635" 
d="M317 -15q-80 0 -132 11t-81.5 37t-41.5 72.5t-12 117.5v402h176v-490h95q36 0 55 4.5t26 16t7 32.5v437h176v-402q0 -70 -12 -116.5t-42 -73t-82 -37.5t-132 -11zM247 670l-36 52l180 132q5 4 10 4q7 0 16 -10l58 -69q8 -10 8 -16q0 -7 -10 -16l-35 -30q-6 -5 -11 -7.5
t-14 -4.5z" />
    <glyph glyph-name="Ubreve" unicode="&#x16c;" horiz-adv-x="635" 
d="M317 -15q-80 0 -132 11t-81.5 37t-41.5 72.5t-12 117.5v402h176v-490h95q36 0 55 4.5t26 16t7 32.5v437h176v-402q0 -70 -12 -116.5t-42 -73t-82 -37.5t-132 -11zM319 679q-48 0 -88.5 32t-54.5 100l89 14q6 -22 21 -34t33 -12t33 12t21 34l89 -14q-15 -67 -55 -99.5
t-88 -32.5z" />
    <glyph glyph-name="Ucircumflex" unicode="&#xdb;" horiz-adv-x="635" 
d="M317 -15q-80 0 -132 11t-81.5 37t-41.5 72.5t-12 117.5v402h176v-490h95q36 0 55 4.5t26 16t7 32.5v437h176v-402q0 -70 -12 -116.5t-42 -73t-82 -37.5t-132 -11zM228 667l-46 45l102 130q6 9 15 9h40q9 0 15 -9l102 -130l-46 -45l-91 70z" />
    <glyph glyph-name="Udieresis" unicode="&#xdc;" horiz-adv-x="635" 
d="M317 -15q-80 0 -132 11t-81.5 37t-41.5 72.5t-12 117.5v402h176v-490h95q36 0 55 4.5t26 16t7 32.5v437h176v-402q0 -70 -12 -116.5t-42 -73t-82 -37.5t-132 -11zM421 683q-48 0 -63 17t-15 58t15 59.5t63 18.5q46 0 61 -18.5t15 -59.5t-15 -58t-61 -17zM218 683
q-48 0 -62.5 17t-14.5 58t14.5 59.5t62.5 18.5q46 0 61 -18.5t15 -59.5t-15 -58t-61 -17z" />
    <glyph glyph-name="Ugrave" unicode="&#xd9;" horiz-adv-x="635" 
d="M317 -15q-80 0 -132 11t-81.5 37t-41.5 72.5t-12 117.5v402h176v-490h95q36 0 55 4.5t26 16t7 32.5v437h176v-402q0 -70 -12 -116.5t-42 -73t-82 -37.5t-132 -11zM418 668l-165 35q-9 2 -14.5 4t-10.5 7l-36 31q-10 8 -10 16q0 6 9 16l58 69q8 9 16 9q5 0 10 -4l180 -132
z" />
    <glyph glyph-name="Uhungarumlaut" unicode="&#x170;" horiz-adv-x="635" 
d="M317 -15q-80 0 -132 11t-81.5 37t-41.5 72.5t-12 117.5v402h176v-490h95q36 0 55 4.5t26 16t7 32.5v437h176v-402q0 -70 -12 -116.5t-42 -73t-82 -37.5t-132 -11zM380 664l-35 53l138 132q8 9 14 10q3 0 6.5 -2.5t8.5 -7.5l59 -70q4 -3 5.5 -7.5t1.5 -8.5q0 -3 -2 -7
t-6 -8l-38 -35q-4 -3 -10.5 -6.5t-20.5 -7.5zM128 664l-36 53l139 132q8 9 14 10q3 0 6.5 -2.5t8.5 -7.5l59 -70q3 -3 5 -7.5t2 -8.5q0 -3 -2 -7t-6 -8l-39 -35q-3 -3 -9.5 -6.5t-20.5 -7.5z" />
    <glyph glyph-name="Umacron" unicode="&#x16a;" horiz-adv-x="635" 
d="M317 -15q-80 0 -132 11t-81.5 37t-41.5 72.5t-12 117.5v402h176v-490h95q36 0 55 4.5t26 16t7 32.5v437h176v-402q0 -70 -12 -116.5t-42 -73t-82 -37.5t-132 -11zM227 697q-35 0 -43 13t-8 47v56h235q35 0 42.5 -11.5t7.5 -46.5v-58h-234z" />
    <glyph glyph-name="Uogonek" unicode="&#x172;" horiz-adv-x="635" 
d="M317 -15q-80 0 -132 11t-81.5 37t-41.5 72.5t-12 117.5v402h176v-490h95q36 0 55 4.5t26 16t7 32.5v437h176v-402q0 -70 -12 -116.5t-42 -73t-82 -37.5t-132 -11zM298 -189q-45 0 -70.5 25t-25.5 68q0 47 40.5 78t115.5 40l10 -34l-13 -3q-22 -3 -29 -10.5t-7 -25.5v-9
q0 -18 6.5 -25t23.5 -7h31l12 -74q-24 -12 -46.5 -17.5t-47.5 -5.5z" />
    <glyph glyph-name="Uring" unicode="&#x16e;" horiz-adv-x="635" 
d="M317 -15q-80 0 -132 11t-81.5 37t-41.5 72.5t-12 117.5v402h176v-490h95q36 0 55 4.5t26 16t7 32.5v437h176v-402q0 -70 -12 -116.5t-42 -73t-82 -37.5t-132 -11zM319 655q-61 0 -86.5 28t-25.5 84q0 55 25.5 83t86.5 28q60 0 85.5 -28t25.5 -84q0 -55 -25.5 -83
t-85.5 -28zM280 724h34q19 0 30.5 3.5t11.5 22.5v59h-31q-20 0 -32.5 -3.5t-12.5 -21.5v-60z" />
    <glyph glyph-name="Utilde" unicode="&#x168;" horiz-adv-x="635" 
d="M317 -15q-80 0 -132 11t-81.5 37t-41.5 72.5t-12 117.5v402h176v-490h95q36 0 55 4.5t26 16t7 32.5v437h176v-402q0 -70 -12 -116.5t-42 -73t-82 -37.5t-132 -11zM333 673q-12 0 -22.5 4t-22.5 13.5t-27 27.5l-78 -39l-39 65q57 41 87.5 61t46 27t27.5 7q13 0 23.5 -4
t21.5 -13.5t27 -27.5l78 38l39 -65q-56 -39 -86.5 -59.5t-46 -27.5t-28.5 -7z" />
    <glyph glyph-name="V" unicode="V" horiz-adv-x="597" 
d="M6 625h176l112 -457h9l112 457h176l-156 -625h-273z" />
    <glyph glyph-name="W" unicode="W" horiz-adv-x="899" 
d="M25 625h176l61 -457h9l83 457h132l-109 -625h-264zM874 625l-89 -625h-264l-108 625h131l84 -457h9l61 457h176z" />
    <glyph glyph-name="Wacute" unicode="&#x1e82;" horiz-adv-x="899" 
d="M25 625h176l61 -457h9l83 457h132l-109 -625h-264zM874 625l-89 -625h-264l-108 625h131l84 -457h9l61 457h176zM378 670l-36 52l180 132q5 4 10 4q7 0 16 -10l58 -69q8 -10 8 -16q0 -7 -10 -16l-35 -30q-6 -5 -11 -7.5t-14 -4.5z" />
    <glyph glyph-name="Wcircumflex" unicode="&#x174;" horiz-adv-x="899" 
d="M25 625h176l61 -457h9l83 457h132l-109 -625h-264zM874 625l-89 -625h-264l-108 625h131l84 -457h9l61 457h176zM359 667l-46 45l102 130q6 9 15 9h40q9 0 15 -9l102 -130l-46 -45l-91 70z" />
    <glyph glyph-name="Wdieresis" unicode="&#x1e84;" horiz-adv-x="899" 
d="M25 625h176l61 -457h9l83 457h132l-109 -625h-264zM874 625l-89 -625h-264l-108 625h131l84 -457h9l61 457h176zM552 683q-48 0 -63 17t-15 58t15 59.5t63 18.5q46 0 61 -18.5t15 -59.5t-15 -58t-61 -17zM349 683q-48 0 -62.5 17t-14.5 58t14.5 59.5t62.5 18.5
q46 0 61 -18.5t15 -59.5t-15 -58t-61 -17z" />
    <glyph glyph-name="Wgrave" unicode="&#x1e80;" horiz-adv-x="899" 
d="M25 625h176l61 -457h9l83 457h132l-109 -625h-264zM874 625l-89 -625h-264l-108 625h131l84 -457h9l61 457h176zM549 668l-165 35q-9 2 -14.5 4t-10.5 7l-36 31q-10 8 -10 16q0 6 9 16l58 69q8 9 16 9q5 0 10 -4l180 -132z" />
    <glyph glyph-name="X" unicode="X" horiz-adv-x="606" 
d="M600 0h-196l-391 625h196zM360 277l-163 -277h-191l217 369zM239 348l163 277h191l-217 -369z" />
    <glyph glyph-name="Y" unicode="Y" horiz-adv-x="558" 
d="M247 305l121 320h184l-185 -421v-204h-176v204l-185 421h185l121 -320h-65z" />
    <glyph glyph-name="Yacute" unicode="&#xdd;" horiz-adv-x="558" 
d="M247 305l121 320h184l-185 -421v-204h-176v204l-185 421h185l121 -320h-65zM208 670l-36 52l180 132q5 4 10 4q7 0 16 -10l58 -69q8 -10 8 -16q0 -7 -10 -16l-35 -30q-6 -5 -11 -7.5t-14 -4.5z" />
    <glyph glyph-name="Ycircumflex" unicode="&#x176;" horiz-adv-x="558" 
d="M247 305l121 320h184l-185 -421v-204h-176v204l-185 421h185l121 -320h-65zM188 667l-46 45l102 130q6 9 15 9h40q9 0 15 -9l102 -130l-46 -45l-91 70z" />
    <glyph glyph-name="Ydieresis" unicode="&#x178;" horiz-adv-x="558" 
d="M247 305l121 320h184l-185 -421v-204h-176v204l-185 421h185l121 -320h-65zM381 683q-48 0 -63 17t-15 58t15 59.5t63 18.5q46 0 61 -18.5t15 -59.5t-15 -58t-61 -17zM178 683q-48 0 -62.5 17t-14.5 58t14.5 59.5t62.5 18.5q46 0 61 -18.5t15 -59.5t-15 -58t-61 -17z" />
    <glyph glyph-name="Ygrave" unicode="&#x1ef2;" horiz-adv-x="558" 
d="M247 305l121 320h184l-185 -421v-204h-176v204l-185 421h185l121 -320h-65zM379 668l-165 35q-9 2 -14.5 4t-10.5 7l-36 31q-10 8 -10 16q0 6 9 16l58 69q8 9 16 9q5 0 10 -4l180 -132z" />
    <glyph glyph-name="Z" unicode="Z" horiz-adv-x="579" 
d="M27 0v115l277 359l-3 6h-229l-16 145h492v-115l-274 -359l3 -6h270v-145h-520z" />
    <glyph glyph-name="Zacute" unicode="&#x179;" horiz-adv-x="579" 
d="M27 0v115l277 359l-3 6h-229l-16 145h492v-115l-274 -359l3 -6h270v-145h-520zM245 670l-36 52l180 132q5 4 10 4q7 0 16 -10l58 -69q8 -10 8 -16q0 -7 -10 -16l-35 -30q-6 -5 -11 -7.5t-14 -4.5z" />
    <glyph glyph-name="Zcaron" unicode="&#x17d;" horiz-adv-x="579" 
d="M27 0v115l277 359l-3 6h-229l-16 145h492v-115l-274 -359l3 -6h270v-145h-520zM226 851l91 -71l91 71l46 -46l-102 -130q-6 -8 -15 -8h-40q-9 0 -15 8l-102 130z" />
    <glyph glyph-name="Zdotaccent" unicode="&#x17b;" horiz-adv-x="579" 
d="M27 0v115l277 359l-3 6h-229l-16 145h492v-115l-274 -359l3 -6h270v-145h-520zM317 678q-55 0 -75.5 19.5t-20.5 74.5q0 56 20.5 76t75.5 20q54 0 74 -20t20 -76q0 -55 -19 -74.5t-75 -19.5z" />
    <glyph glyph-name="a" unicode="a" horiz-adv-x="560" 
d="M202 -14q-89 0 -129.5 39.5t-40.5 125.5q0 47 13.5 78.5t44 50.5t83 27t130.5 8h57v-92h-94q-41 0 -56.5 -9.5t-15.5 -36.5v-70h64q41 0 56.5 9t15.5 34v228q-21 6 -63 6q-43 0 -90.5 -6t-100.5 -20l-21 123q35 11 73 18.5t78 11t81 3.5q77 0 125 -17.5t71 -54t23 -95.5
v-347h-87l-45 50q-75 -64 -172 -64z" />
    <glyph glyph-name="aacute" unicode="&#xe1;" horiz-adv-x="560" 
d="M202 -14q-89 0 -129.5 39.5t-40.5 125.5q0 47 13.5 78.5t44 50.5t83 27t130.5 8h57v-92h-94q-41 0 -56.5 -9.5t-15.5 -36.5v-70h64q41 0 56.5 9t15.5 34v228q-21 6 -63 6q-43 0 -90.5 -6t-100.5 -20l-21 123q35 11 73 18.5t78 11t81 3.5q77 0 125 -17.5t71 -54t23 -95.5
v-347h-87l-45 50q-75 -64 -172 -64zM215 545l-36 52l180 132q5 4 10 4q7 0 16 -10l58 -69q8 -10 8 -16q0 -7 -10 -16l-35 -30q-6 -5 -11 -7.5t-14 -4.5z" />
    <glyph glyph-name="abreve" unicode="&#x103;" horiz-adv-x="560" 
d="M202 -14q-89 0 -129.5 39.5t-40.5 125.5q0 47 13.5 78.5t44 50.5t83 27t130.5 8h57v-92h-94q-41 0 -56.5 -9.5t-15.5 -36.5v-70h64q41 0 56.5 9t15.5 34v228q-21 6 -63 6q-43 0 -90.5 -6t-100.5 -20l-21 123q35 11 73 18.5t78 11t81 3.5q77 0 125 -17.5t71 -54t23 -95.5
v-347h-87l-45 50q-75 -64 -172 -64zM287 554q-48 0 -88.5 32t-54.5 100l89 14q6 -22 21 -34t33 -12t33 12t21 34l89 -14q-15 -67 -55 -99.5t-88 -32.5z" />
    <glyph glyph-name="acircumflex" unicode="&#xe2;" horiz-adv-x="560" 
d="M202 -14q-89 0 -129.5 39.5t-40.5 125.5q0 47 13.5 78.5t44 50.5t83 27t130.5 8h57v-92h-94q-41 0 -56.5 -9.5t-15.5 -36.5v-70h64q41 0 56.5 9t15.5 34v228q-21 6 -63 6q-43 0 -90.5 -6t-100.5 -20l-21 123q35 11 73 18.5t78 11t81 3.5q77 0 125 -17.5t71 -54t23 -95.5
v-347h-87l-45 50q-75 -64 -172 -64zM196 542l-46 45l102 130q6 9 15 9h40q9 0 15 -9l102 -130l-46 -45l-91 70z" />
    <glyph glyph-name="adieresis" unicode="&#xe4;" horiz-adv-x="560" 
d="M202 -14q-89 0 -129.5 39.5t-40.5 125.5q0 47 13.5 78.5t44 50.5t83 27t130.5 8h57v-92h-94q-41 0 -56.5 -9.5t-15.5 -36.5v-70h64q41 0 56.5 9t15.5 34v228q-21 6 -63 6q-43 0 -90.5 -6t-100.5 -20l-21 123q35 11 73 18.5t78 11t81 3.5q77 0 125 -17.5t71 -54t23 -95.5
v-347h-87l-45 50q-75 -64 -172 -64zM389 558q-48 0 -63 17t-15 58t15 59.5t63 18.5q46 0 61 -18.5t15 -59.5t-15 -58t-61 -17zM186 558q-48 0 -62.5 17t-14.5 58t14.5 59.5t62.5 18.5q46 0 61 -18.5t15 -59.5t-15 -58t-61 -17z" />
    <glyph glyph-name="agrave" unicode="&#xe0;" horiz-adv-x="560" 
d="M202 -14q-89 0 -129.5 39.5t-40.5 125.5q0 47 13.5 78.5t44 50.5t83 27t130.5 8h57v-92h-94q-41 0 -56.5 -9.5t-15.5 -36.5v-70h64q41 0 56.5 9t15.5 34v228q-21 6 -63 6q-43 0 -90.5 -6t-100.5 -20l-21 123q35 11 73 18.5t78 11t81 3.5q77 0 125 -17.5t71 -54t23 -95.5
v-347h-87l-45 50q-75 -64 -172 -64zM386 543l-165 35q-9 2 -14.5 4t-10.5 7l-36 31q-10 8 -10 16q0 6 9 16l58 69q8 9 16 9q5 0 10 -4l180 -132z" />
    <glyph glyph-name="amacron" unicode="&#x101;" horiz-adv-x="560" 
d="M202 -14q-89 0 -129.5 39.5t-40.5 125.5q0 47 13.5 78.5t44 50.5t83 27t130.5 8h57v-92h-94q-41 0 -56.5 -9.5t-15.5 -36.5v-70h64q41 0 56.5 9t15.5 34v228q-21 6 -63 6q-43 0 -90.5 -6t-100.5 -20l-21 123q35 11 73 18.5t78 11t81 3.5q77 0 125 -17.5t71 -54t23 -95.5
v-347h-87l-45 50q-75 -64 -172 -64zM195 572q-35 0 -43 13t-8 47v56h235q35 0 42.5 -11.5t7.5 -46.5v-58h-234z" />
    <glyph glyph-name="aogonek" unicode="&#x105;" horiz-adv-x="560" 
d="M202 -14q-89 0 -129.5 39.5t-40.5 125.5q0 47 13.5 78.5t44 50.5t83 27t130.5 8h57v-92h-94q-41 0 -56.5 -9.5t-15.5 -36.5v-70h64q41 0 56.5 9t15.5 34v228q-21 6 -63 6q-43 0 -90.5 -6t-100.5 -20l-21 123q35 11 73 18.5t78 11t81 3.5q77 0 125 -17.5t71 -54t23 -95.5
v-347h-87l-45 50q-75 -64 -172 -64zM436 -177q-45 0 -70.5 25t-25.5 68q0 47 40.5 78t115.5 40l10 -34l-13 -3q-22 -3 -29 -10.5t-7 -25.5v-9q0 -18 6.5 -25t23.5 -7h31l12 -74q-24 -12 -46.5 -17.5t-47.5 -5.5z" />
    <glyph glyph-name="aring" unicode="&#xe5;" horiz-adv-x="560" 
d="M202 -14q-89 0 -129.5 39.5t-40.5 125.5q0 47 13.5 78.5t44 50.5t83 27t130.5 8h57v-92h-94q-41 0 -56.5 -9.5t-15.5 -36.5v-70h64q41 0 56.5 9t15.5 34v228q-21 6 -63 6q-43 0 -90.5 -6t-100.5 -20l-21 123q35 11 73 18.5t78 11t81 3.5q77 0 125 -17.5t71 -54t23 -95.5
v-347h-87l-45 50q-75 -64 -172 -64zM287 530q-61 0 -86.5 28t-25.5 84q0 55 25.5 83t86.5 28q60 0 85.5 -28t25.5 -84q0 -55 -25.5 -83t-85.5 -28zM248 599h34q19 0 30.5 3.5t11.5 22.5v59h-31q-20 0 -32.5 -3.5t-12.5 -21.5v-60z" />
    <glyph glyph-name="aringacute" unicode="&#x1fb;" horiz-adv-x="560" 
d="M202 -14q-89 0 -129.5 39.5t-40.5 125.5q0 47 13.5 78.5t44 50.5t83 27t130.5 8h57v-92h-94q-41 0 -56.5 -9.5t-15.5 -36.5v-70h64q41 0 56.5 9t15.5 34v228q-21 6 -63 6q-43 0 -90.5 -6t-100.5 -20l-21 123q35 11 73 18.5t78 11t81 3.5q77 0 125 -17.5t71 -54t23 -95.5
v-347h-87l-45 50q-75 -64 -172 -64zM287 530q-61 0 -86.5 28t-25.5 84q0 55 25.5 83t86.5 28q60 0 85.5 -28t25.5 -84q0 -55 -25.5 -83t-85.5 -28zM248 599h34q19 0 30.5 3.5t11.5 22.5v59h-31q-20 0 -32.5 -3.5t-12.5 -21.5v-60zM215 778l-36 52l180 132q5 4 10 4
q7 0 16 -10l58 -69q8 -10 8 -16q0 -7 -10 -16l-35 -30q-6 -5 -11 -7.5t-14 -4.5z" />
    <glyph glyph-name="atilde" unicode="&#xe3;" horiz-adv-x="560" 
d="M202 -14q-89 0 -129.5 39.5t-40.5 125.5q0 47 13.5 78.5t44 50.5t83 27t130.5 8h57v-92h-94q-41 0 -56.5 -9.5t-15.5 -36.5v-70h64q41 0 56.5 9t15.5 34v228q-21 6 -63 6q-43 0 -90.5 -6t-100.5 -20l-21 123q35 11 73 18.5t78 11t81 3.5q77 0 125 -17.5t71 -54t23 -95.5
v-347h-87l-45 50q-75 -64 -172 -64zM301 548q-12 0 -22.5 4t-22.5 13.5t-27 27.5l-78 -39l-39 65q57 41 87.5 61t46 27t27.5 7q13 0 23.5 -4t21.5 -13.5t27 -27.5l78 38l39 -65q-56 -39 -86.5 -59.5t-46 -27.5t-28.5 -7z" />
    <glyph glyph-name="ae" unicode="&#xe6;" horiz-adv-x="843" 
d="M202 -14q-89 0 -129.5 39.5t-40.5 125.5q0 47 13.5 78.5t44 50.5t83 27t130.5 8h57v-92h-94q-41 0 -56.5 -9.5t-15.5 -36.5v-70h64q41 0 56.5 9t15.5 34v228q-21 6 -63 6q-43 0 -90.5 -6t-100.5 -20l-21 123q35 11 73 18.5t78 11t81 3.5q77 0 125 -17.5t71 -54t23 -95.5
v-297l-130 2q-37 -32 -81.5 -49t-92.5 -17zM565 -14q-80 0 -130.5 21.5t-79.5 67.5l31 385q29 27 74 40.5t109 13.5q88 0 137.5 -15t69.5 -51t20 -99q0 -47 -14.5 -78.5t-47.5 -50.5t-89 -27t-139 -8h-30v92h89q41 0 56.5 9.5t15.5 36.5v61h-59q-41 0 -56.5 -9t-15.5 -34
v-219q16 -3 35 -4.5t44 -1.5q43 0 86 6.5t91 19.5l21 -123q-51 -16 -106 -24.5t-112 -8.5z" />
    <glyph glyph-name="aeacute" unicode="&#x1fd;" horiz-adv-x="843" 
d="M202 -14q-89 0 -129.5 39.5t-40.5 125.5q0 47 13.5 78.5t44 50.5t83 27t130.5 8h57v-92h-94q-41 0 -56.5 -9.5t-15.5 -36.5v-70h64q41 0 56.5 9t15.5 34v228q-21 6 -63 6q-43 0 -90.5 -6t-100.5 -20l-21 123q35 11 73 18.5t78 11t81 3.5q77 0 125 -17.5t71 -54t23 -95.5
v-297l-130 2q-37 -32 -81.5 -49t-92.5 -17zM565 -14q-80 0 -130.5 21.5t-79.5 67.5l31 385q29 27 74 40.5t109 13.5q88 0 137.5 -15t69.5 -51t20 -99q0 -47 -14.5 -78.5t-47.5 -50.5t-89 -27t-139 -8h-30v92h89q41 0 56.5 9.5t15.5 36.5v61h-59q-41 0 -56.5 -9t-15.5 -34
v-219q16 -3 35 -4.5t44 -1.5q43 0 86 6.5t91 19.5l21 -123q-51 -16 -106 -24.5t-112 -8.5zM351 545l-36 52l180 132q5 4 10 4q7 0 16 -10l58 -69q8 -10 8 -16q0 -7 -10 -16l-35 -30q-6 -5 -11 -7.5t-14 -4.5z" />
    <glyph glyph-name="b" unicode="b" horiz-adv-x="589" 
d="M345 515q55 0 94.5 -14.5t64.5 -46.5t36 -82t11 -122q0 -71 -13 -121.5t-42 -82t-75.5 -46t-110.5 -14.5q-48 0 -82 14.5t-55 46t-30.5 82t-9.5 121.5q0 72 11.5 122.5t36.5 82t66 46t98 14.5zM363 381h-87q-23 0 -31.5 -5.5t-8.5 -21.5v-234h86q24 0 32.5 5.5t8.5 20.5
v235zM60 654l176 14v-541v-42l74 -99q-74 0 -131.5 8.5t-118.5 29.5v630z" />
    <glyph glyph-name="c" unicode="c" horiz-adv-x="450" 
d="M254 -14q-58 0 -99 14.5t-67 46.5t-38.5 82t-12.5 121t12.5 121.5t38.5 82t67 46t99 14.5q29 0 61.5 -3t61.5 -7.5t46 -10.5l-16 -123q-26 8 -52.5 11t-56.5 3q-40 0 -56 -17t-16 -59v-186q20 -6 63 -6q34 0 65 6.5t63 19.5l16 -123q-40 -16 -85.5 -24.5t-93.5 -8.5z" />
    <glyph glyph-name="cacute" unicode="&#x107;" horiz-adv-x="450" 
d="M254 -14q-58 0 -99 14.5t-67 46.5t-38.5 82t-12.5 121t12.5 121.5t38.5 82t67 46t99 14.5q29 0 61.5 -3t61.5 -7.5t46 -10.5l-16 -123q-26 8 -52.5 11t-56.5 3q-40 0 -56 -17t-16 -59v-186q20 -6 63 -6q34 0 65 6.5t63 19.5l16 -123q-40 -16 -85.5 -24.5t-93.5 -8.5z
M174 545l-36 52l180 132q5 4 10 4q7 0 16 -10l58 -69q8 -10 8 -16q0 -7 -10 -16l-35 -30q-6 -5 -11 -7.5t-14 -4.5z" />
    <glyph glyph-name="ccaron" unicode="&#x10d;" horiz-adv-x="450" 
d="M254 -14q-58 0 -99 14.5t-67 46.5t-38.5 82t-12.5 121t12.5 121.5t38.5 82t67 46t99 14.5q29 0 61.5 -3t61.5 -7.5t46 -10.5l-16 -123q-26 8 -52.5 11t-56.5 3q-40 0 -56 -17t-16 -59v-186q20 -6 63 -6q34 0 65 6.5t63 19.5l16 -123q-40 -16 -85.5 -24.5t-93.5 -8.5z
M155 726l91 -71l91 71l46 -46l-102 -130q-6 -8 -15 -8h-40q-9 0 -15 8l-102 130z" />
    <glyph glyph-name="ccedilla" unicode="&#xe7;" horiz-adv-x="450" 
d="M254 -14q-58 0 -99 14.5t-67 46.5t-38.5 82t-12.5 121t12.5 121.5t38.5 82t67 46t99 14.5q29 0 61.5 -3t61.5 -7.5t46 -10.5l-16 -123q-26 8 -52.5 11t-56.5 3q-40 0 -56 -17t-16 -59v-186q20 -6 63 -6q34 0 65 6.5t63 19.5l16 -123q-40 -16 -85.5 -24.5t-93.5 -8.5z
M225 -177q-51 0 -96 18l10 79h26q27 0 35 7t8 32v62h51q33 -13 53.5 -42t20.5 -62q0 -43 -29.5 -68.5t-78.5 -25.5z" />
    <glyph glyph-name="ccircumflex" unicode="&#x109;" horiz-adv-x="450" 
d="M254 -14q-58 0 -99 14.5t-67 46.5t-38.5 82t-12.5 121t12.5 121.5t38.5 82t67 46t99 14.5q29 0 61.5 -3t61.5 -7.5t46 -10.5l-16 -123q-26 8 -52.5 11t-56.5 3q-40 0 -56 -17t-16 -59v-186q20 -6 63 -6q34 0 65 6.5t63 19.5l16 -123q-40 -16 -85.5 -24.5t-93.5 -8.5z
M155 542l-46 45l102 130q6 9 15 9h40q9 0 15 -9l102 -130l-46 -45l-91 70z" />
    <glyph glyph-name="cdotaccent" unicode="&#x10b;" horiz-adv-x="450" 
d="M254 -14q-58 0 -99 14.5t-67 46.5t-38.5 82t-12.5 121t12.5 121.5t38.5 82t67 46t99 14.5q29 0 61.5 -3t61.5 -7.5t46 -10.5l-16 -123q-26 8 -52.5 11t-56.5 3q-40 0 -56 -17t-16 -59v-186q20 -6 63 -6q34 0 65 6.5t63 19.5l16 -123q-40 -16 -85.5 -24.5t-93.5 -8.5z
M246 553q-55 0 -75.5 19.5t-20.5 74.5q0 56 20.5 76t75.5 20q54 0 74 -20t20 -76q0 -55 -19 -74.5t-75 -19.5z" />
    <glyph glyph-name="d" unicode="d" horiz-adv-x="589" 
d="M244 514q58 0 98.5 -15t65.5 -46t36.5 -81.5t11.5 -121.5q0 -72 -11.5 -122.5t-36.5 -82t-65.5 -46t-98.5 -14.5q-56 0 -95 14.5t-64 46.5t-36.5 82t-11.5 122q0 71 11.5 121.5t36.5 82t64 46t95 14.5zM353 380h-87q-23 0 -31.5 -5.5t-8.5 -21.5v-234h86q24 0 32.5 5.5
t8.5 21.5v234zM529 668v-668h-87l-89 127v527z" />
    <glyph glyph-name="eth" unicode="&#xf0;" horiz-adv-x="584" 
d="M291 -14q-67 0 -115 13t-78.5 40.5t-45 71t-14.5 104.5t14.5 104.5t44.5 71t78 40.5t116 13h142l110 -134v-65q0 -69 -14.5 -118.5t-45 -80.5t-78 -45.5t-114.5 -14.5zM227 120h87q24 0 32 5.5t8 21.5v163h-86q-23 0 -32 -5.5t-9 -21.5v-163zM372 310q0 89 -30 180
t-86 168l161 45q36 -48 64.5 -115t45 -139.5t16.5 -138.5h-171zM259 478l-13 36q-8 25 -8 41q0 20 24 28l271 90l13 -37q8 -25 8 -40q0 -21 -24 -29z" />
    <glyph glyph-name="dcaron" unicode="&#x10f;" horiz-adv-x="736" 
d="M244 514q58 0 98.5 -15t65.5 -46t36.5 -81.5t11.5 -121.5q0 -72 -11.5 -122.5t-36.5 -82t-65.5 -46t-98.5 -14.5q-56 0 -95 14.5t-64 46.5t-36.5 82t-11.5 122q0 71 11.5 121.5t36.5 82t64 46t95 14.5zM353 380h-87q-23 0 -31.5 -5.5t-8.5 -21.5v-234h86q24 0 32.5 5.5
t8.5 21.5v234zM529 668v-668h-87l-89 127v527zM664 419l-67 20l24 102q-32 5 -46 20t-14 49q0 52 19 71t69 19q49 0 68 -19t19 -71q0 -27 -8 -51.5t-24 -60.5z" />
    <glyph glyph-name="dcroat" unicode="&#x111;" horiz-adv-x="589" 
d="M244 514q58 0 98.5 -15t65.5 -46t36.5 -81.5t11.5 -121.5q0 -72 -11.5 -122.5t-36.5 -82t-65.5 -46t-98.5 -14.5q-56 0 -95 14.5t-64 46.5t-36.5 82t-11.5 122q0 71 11.5 121.5t36.5 82t64 46t95 14.5zM353 380h-87q-23 0 -31.5 -5.5t-8.5 -21.5v-234h86q24 0 32.5 5.5
t8.5 21.5v234zM529 668v-668h-87l-89 127v527zM297.101 590.646q0 17.0498 10.3506 23.375q10.3496 6.32422 38.251 6.32422h240.306v-37.9492q0 -17.0498 -10.3496 -23.374q-10.3506 -6.3252 -38.251 -6.3252h-240.307v37.9492z" />
    <glyph glyph-name="e" unicode="e" horiz-adv-x="563" 
d="M285 -14q-65 0 -112 15t-77 47t-44.5 82t-14.5 120q0 94 26.5 152t82 85t143.5 27t137 -15t69.5 -51t20.5 -99q0 -47 -14.5 -78.5t-47.5 -50.5t-89 -27t-139 -8h-30v92h89q41 0 56.5 9.5t15.5 36.5v61h-59q-41 0 -56.5 -9t-15.5 -34v-219q25 -6 79 -6q42 0 85 6.5
t91 19.5l22 -123q-49 -16 -104 -24.5t-114 -8.5z" />
    <glyph glyph-name="eacute" unicode="&#xe9;" horiz-adv-x="563" 
d="M285 -14q-65 0 -112 15t-77 47t-44.5 82t-14.5 120q0 94 26.5 152t82 85t143.5 27t137 -15t69.5 -51t20.5 -99q0 -47 -14.5 -78.5t-47.5 -50.5t-89 -27t-139 -8h-30v92h89q41 0 56.5 9.5t15.5 36.5v61h-59q-41 0 -56.5 -9t-15.5 -34v-219q25 -6 79 -6q42 0 85 6.5
t91 19.5l22 -123q-49 -16 -104 -24.5t-114 -8.5zM218 545l-36 52l180 132q5 4 10 4q7 0 16 -10l58 -69q8 -10 8 -16q0 -7 -10 -16l-35 -30q-6 -5 -11 -7.5t-14 -4.5z" />
    <glyph glyph-name="ebreve" unicode="&#x115;" horiz-adv-x="563" 
d="M285 -14q-65 0 -112 15t-77 47t-44.5 82t-14.5 120q0 94 26.5 152t82 85t143.5 27t137 -15t69.5 -51t20.5 -99q0 -47 -14.5 -78.5t-47.5 -50.5t-89 -27t-139 -8h-30v92h89q41 0 56.5 9.5t15.5 36.5v61h-59q-41 0 -56.5 -9t-15.5 -34v-219q25 -6 79 -6q42 0 85 6.5
t91 19.5l22 -123q-49 -16 -104 -24.5t-114 -8.5zM289 554q-48 0 -88.5 32t-54.5 100l89 14q6 -22 21 -34t33 -12t33 12t21 34l89 -14q-15 -67 -55 -99.5t-88 -32.5z" />
    <glyph glyph-name="ecaron" unicode="&#x11b;" horiz-adv-x="563" 
d="M285 -14q-65 0 -112 15t-77 47t-44.5 82t-14.5 120q0 94 26.5 152t82 85t143.5 27t137 -15t69.5 -51t20.5 -99q0 -47 -14.5 -78.5t-47.5 -50.5t-89 -27t-139 -8h-30v92h89q41 0 56.5 9.5t15.5 36.5v61h-59q-41 0 -56.5 -9t-15.5 -34v-219q25 -6 79 -6q42 0 85 6.5
t91 19.5l22 -123q-49 -16 -104 -24.5t-114 -8.5zM198 726l91 -71l91 71l46 -46l-102 -130q-6 -8 -15 -8h-40q-9 0 -15 8l-102 130z" />
    <glyph glyph-name="ecircumflex" unicode="&#xea;" horiz-adv-x="563" 
d="M285 -14q-65 0 -112 15t-77 47t-44.5 82t-14.5 120q0 94 26.5 152t82 85t143.5 27t137 -15t69.5 -51t20.5 -99q0 -47 -14.5 -78.5t-47.5 -50.5t-89 -27t-139 -8h-30v92h89q41 0 56.5 9.5t15.5 36.5v61h-59q-41 0 -56.5 -9t-15.5 -34v-219q25 -6 79 -6q42 0 85 6.5
t91 19.5l22 -123q-49 -16 -104 -24.5t-114 -8.5zM198 542l-46 45l102 130q6 9 15 9h40q9 0 15 -9l102 -130l-46 -45l-91 70z" />
    <glyph glyph-name="edieresis" unicode="&#xeb;" horiz-adv-x="563" 
d="M285 -14q-65 0 -112 15t-77 47t-44.5 82t-14.5 120q0 94 26.5 152t82 85t143.5 27t137 -15t69.5 -51t20.5 -99q0 -47 -14.5 -78.5t-47.5 -50.5t-89 -27t-139 -8h-30v92h89q41 0 56.5 9.5t15.5 36.5v61h-59q-41 0 -56.5 -9t-15.5 -34v-219q25 -6 79 -6q42 0 85 6.5
t91 19.5l22 -123q-49 -16 -104 -24.5t-114 -8.5zM391 558q-48 0 -63 17t-15 58t15 59.5t63 18.5q46 0 61 -18.5t15 -59.5t-15 -58t-61 -17zM188 558q-48 0 -62.5 17t-14.5 58t14.5 59.5t62.5 18.5q46 0 61 -18.5t15 -59.5t-15 -58t-61 -17z" />
    <glyph glyph-name="edotaccent" unicode="&#x117;" horiz-adv-x="563" 
d="M285 -14q-65 0 -112 15t-77 47t-44.5 82t-14.5 120q0 94 26.5 152t82 85t143.5 27t137 -15t69.5 -51t20.5 -99q0 -47 -14.5 -78.5t-47.5 -50.5t-89 -27t-139 -8h-30v92h89q41 0 56.5 9.5t15.5 36.5v61h-59q-41 0 -56.5 -9t-15.5 -34v-219q25 -6 79 -6q42 0 85 6.5
t91 19.5l22 -123q-49 -16 -104 -24.5t-114 -8.5zM290 553q-55 0 -75.5 19.5t-20.5 74.5q0 56 20.5 76t75.5 20q54 0 74 -20t20 -76q0 -55 -19 -74.5t-75 -19.5z" />
    <glyph glyph-name="egrave" unicode="&#xe8;" horiz-adv-x="563" 
d="M285 -14q-65 0 -112 15t-77 47t-44.5 82t-14.5 120q0 94 26.5 152t82 85t143.5 27t137 -15t69.5 -51t20.5 -99q0 -47 -14.5 -78.5t-47.5 -50.5t-89 -27t-139 -8h-30v92h89q41 0 56.5 9.5t15.5 36.5v61h-59q-41 0 -56.5 -9t-15.5 -34v-219q25 -6 79 -6q42 0 85 6.5
t91 19.5l22 -123q-49 -16 -104 -24.5t-114 -8.5zM389 543l-165 35q-9 2 -14.5 4t-10.5 7l-36 31q-10 8 -10 16q0 6 9 16l58 69q8 9 16 9q5 0 10 -4l180 -132z" />
    <glyph glyph-name="emacron" unicode="&#x113;" horiz-adv-x="563" 
d="M285 -14q-65 0 -112 15t-77 47t-44.5 82t-14.5 120q0 94 26.5 152t82 85t143.5 27t137 -15t69.5 -51t20.5 -99q0 -47 -14.5 -78.5t-47.5 -50.5t-89 -27t-139 -8h-30v92h89q41 0 56.5 9.5t15.5 36.5v61h-59q-41 0 -56.5 -9t-15.5 -34v-219q25 -6 79 -6q42 0 85 6.5
t91 19.5l22 -123q-49 -16 -104 -24.5t-114 -8.5zM197 572q-35 0 -43 13t-8 47v56h235q35 0 42.5 -11.5t7.5 -46.5v-58h-234z" />
    <glyph glyph-name="eogonek" unicode="&#x119;" horiz-adv-x="563" 
d="M285 -14q-65 0 -112 15t-77 47t-44.5 82t-14.5 120q0 94 26.5 152t82 85t143.5 27t137 -15t69.5 -51t20.5 -99q0 -47 -14.5 -78.5t-47.5 -50.5t-89 -27t-139 -8h-30v92h89q41 0 56.5 9.5t15.5 36.5v61h-59q-41 0 -56.5 -9t-15.5 -34v-219q25 -6 79 -6q42 0 85 6.5
t91 19.5l22 -123q-49 -16 -104 -24.5t-114 -8.5zM433 -158q-45 0 -70.5 25t-25.5 68q0 47 40.5 78t115.5 40l10 -34l-13 -3q-22 -3 -29 -10.5t-7 -25.5v-9q0 -18 6.5 -25t23.5 -7h31l12 -74q-24 -12 -46.5 -17.5t-47.5 -5.5z" />
    <glyph glyph-name="f" unicode="f" horiz-adv-x="352" 
d="M266 0h-176v499q3 66 19.5 104.5t52.5 55t96 16.5q23 0 49 -2.5t56 -7.5l-9 -109l-88 8v-564zM330 500v-115h-295v115h295z" />
    <glyph glyph-name="g" unicode="g" horiz-adv-x="538" 
d="M257 144q-80 0 -130 19t-73.5 60t-23.5 106q0 66 23.5 106.5t73.5 60t130 19.5q82 0 132 -19t73.5 -60t23.5 -107t-23 -107t-73.5 -59.5t-132.5 -18.5zM198 237h77q24 0 33.5 9t9.5 30v146h-78q-24 0 -33 -8.5t-9 -31.5v-145zM492 -25q0 -51 -23 -84t-72 -48.5
t-127 -15.5q-60 0 -118.5 8.5t-112.5 24.5l22 123q46 -12 88.5 -18.5t85.5 -6.5q28 0 52 2t47 4v46q-96 7 -137 18t-41 29l35 112l114 -1l-4 -59q57 -8 94 -17.5t58 -24.5t30 -37.5t9 -54.5zM439 375l-92 121l97 74l84 -81z" />
    <glyph glyph-name="gbreve" unicode="&#x11f;" horiz-adv-x="538" 
d="M257 144q-80 0 -130 19t-73.5 60t-23.5 106q0 66 23.5 106.5t73.5 60t130 19.5q82 0 132 -19t73.5 -60t23.5 -107t-23 -107t-73.5 -59.5t-132.5 -18.5zM198 237h77q24 0 33.5 9t9.5 30v146h-78q-24 0 -33 -8.5t-9 -31.5v-145zM492 -25q0 -51 -23 -84t-72 -48.5
t-127 -15.5q-60 0 -118.5 8.5t-112.5 24.5l22 123q46 -12 88.5 -18.5t85.5 -6.5q28 0 52 2t47 4v46q-96 7 -137 18t-41 29l35 112l114 -1l-4 -59q57 -8 94 -17.5t58 -24.5t30 -37.5t9 -54.5zM439 375l-92 121l97 74l84 -81zM269 554q-48 0 -88.5 32t-54.5 100l89 14
q6 -22 21 -34t33 -12t33 12t21 34l89 -14q-15 -67 -55 -99.5t-88 -32.5z" />
    <glyph glyph-name="gcircumflex" unicode="&#x11d;" horiz-adv-x="538" 
d="M257 144q-80 0 -130 19t-73.5 60t-23.5 106q0 66 23.5 106.5t73.5 60t130 19.5q82 0 132 -19t73.5 -60t23.5 -107t-23 -107t-73.5 -59.5t-132.5 -18.5zM198 237h77q24 0 33.5 9t9.5 30v146h-78q-24 0 -33 -8.5t-9 -31.5v-145zM492 -25q0 -51 -23 -84t-72 -48.5
t-127 -15.5q-60 0 -118.5 8.5t-112.5 24.5l22 123q46 -12 88.5 -18.5t85.5 -6.5q28 0 52 2t47 4v46q-96 7 -137 18t-41 29l35 112l114 -1l-4 -59q57 -8 94 -17.5t58 -24.5t30 -37.5t9 -54.5zM439 375l-92 121l97 74l84 -81zM178 542l-46 45l102 130q6 9 15 9h40q9 0 15 -9
l102 -130l-46 -45l-91 70z" />
    <glyph glyph-name="uni0123" unicode="&#x123;" horiz-adv-x="538" 
d="M257 144q-80 0 -130 19t-73.5 60t-23.5 106q0 66 23.5 106.5t73.5 60t130 19.5q82 0 132 -19t73.5 -60t23.5 -107t-23 -107t-73.5 -59.5t-132.5 -18.5zM198 237h77q24 0 33.5 9t9.5 30v146h-78q-24 0 -33 -8.5t-9 -31.5v-145zM492 -25q0 -51 -23 -84t-72 -48.5
t-127 -15.5q-60 0 -118.5 8.5t-112.5 24.5l22 123q46 -12 88.5 -18.5t85.5 -6.5q28 0 52 2t47 4v46q-96 7 -137 18t-41 29l35 112l114 -1l-4 -59q57 -8 94 -17.5t58 -24.5t30 -37.5t9 -54.5zM439 375l-92 121l97 74l84 -81zM254 826l67 -20l-24 -102q32 -5 45.5 -20
t13.5 -49q0 -51 -19 -70.5t-68 -19.5t-68 19.5t-19 70.5q0 27 8 51.5t24 60.5z" />
    <glyph glyph-name="gdotaccent" unicode="&#x121;" horiz-adv-x="538" 
d="M257 144q-80 0 -130 19t-73.5 60t-23.5 106q0 66 23.5 106.5t73.5 60t130 19.5q82 0 132 -19t73.5 -60t23.5 -107t-23 -107t-73.5 -59.5t-132.5 -18.5zM198 237h77q24 0 33.5 9t9.5 30v146h-78q-24 0 -33 -8.5t-9 -31.5v-145zM492 -25q0 -51 -23 -84t-72 -48.5
t-127 -15.5q-60 0 -118.5 8.5t-112.5 24.5l22 123q46 -12 88.5 -18.5t85.5 -6.5q28 0 52 2t47 4v46q-96 7 -137 18t-41 29l35 112l114 -1l-4 -59q57 -8 94 -17.5t58 -24.5t30 -37.5t9 -54.5zM439 375l-92 121l97 74l84 -81zM269 553q-55 0 -75.5 19.5t-20.5 74.5
q0 56 20.5 76t75.5 20q54 0 74 -20t20 -76q0 -55 -19 -74.5t-75 -19.5z" />
    <glyph glyph-name="h" unicode="h" horiz-adv-x="590" 
d="M60 0v652l172 13v-187q32 19 71.5 27.5t84.5 8.5q71 0 109.5 -28.5t38.5 -79.5v-406h-176v369h-51q-42 0 -57.5 -10t-15.5 -36v-323h-176z" />
    <glyph glyph-name="hbar" unicode="&#x127;" horiz-adv-x="590" 
d="M60 0v652l172 13v-187q32 19 71.5 27.5t84.5 8.5q71 0 109.5 -28.5t38.5 -79.5v-406h-176v369h-51q-42 0 -57.5 -10t-15.5 -36v-323h-176zM3.10059 571.646q0 17.0498 10.3506 23.375q10.3496 6.32422 38.251 6.32422h240.306v-37.9492q0 -17.0498 -10.3496 -23.374
q-10.3506 -6.3252 -38.251 -6.3252h-240.307v37.9492z" />
    <glyph glyph-name="hcircumflex" unicode="&#x125;" horiz-adv-x="590" 
d="M60 0v652l172 13v-187q32 19 71.5 27.5t84.5 8.5q71 0 109.5 -28.5t38.5 -79.5v-406h-176v369h-51q-42 0 -57.5 -10t-15.5 -36v-323h-176zM57 682l-46 45l102 130q6 9 15 9h40q9 0 15 -9l102 -130l-46 -45l-91 70z" />
    <glyph glyph-name="i" unicode="i" horiz-adv-x="295" 
d="M60 479l176 23v-502h-176v479zM148 553q-55 0 -75.5 19.5t-20.5 74.5q0 56 20.5 76t75.5 20q54 0 74 -20t20 -76q0 -55 -19 -74.5t-75 -19.5z" />
    <glyph glyph-name="dotlessi" unicode="&#x131;" horiz-adv-x="295" 
d="M60 479l176 23v-502h-176v479z" />
    <glyph glyph-name="iacute" unicode="&#xed;" horiz-adv-x="295" 
d="M60 479l176 23v-502h-176v479zM76 545l-36 52l180 132q5 4 10 4q7 0 16 -10l58 -69q8 -10 8 -16q0 -7 -10 -16l-35 -30q-6 -5 -11 -7.5t-14 -4.5z" />
    <glyph glyph-name="ibreve" unicode="&#x12d;" horiz-adv-x="295" 
d="M60 479l176 23v-502h-176v479zM148 554q-48 0 -88.5 32t-54.5 100l89 14q6 -22 21 -34t33 -12t33 12t21 34l89 -14q-15 -67 -55 -99.5t-88 -32.5z" />
    <glyph glyph-name="icircumflex" unicode="&#xee;" horiz-adv-x="295" 
d="M60 479l176 23v-502h-176v479zM57 542l-46 45l102 130q6 9 15 9h40q9 0 15 -9l102 -130l-46 -45l-91 70z" />
    <glyph glyph-name="idieresis" unicode="&#xef;" horiz-adv-x="295" 
d="M60 479l176 23v-502h-176v479zM250 558q-48 0 -63 17t-15 58t15 59.5t63 18.5q46 0 61 -18.5t15 -59.5t-15 -58t-61 -17zM47 558q-48 0 -62.5 17t-14.5 58t14.5 59.5t62.5 18.5q46 0 61 -18.5t15 -59.5t-15 -58t-61 -17z" />
    <glyph glyph-name="i.loclTRK" horiz-adv-x="295" 
d="M60 479l176 23v-502h-176v479zM148 553q-55 0 -75.5 19.5t-20.5 74.5q0 56 20.5 76t75.5 20q54 0 74 -20t20 -76q0 -55 -19 -74.5t-75 -19.5z" />
    <glyph glyph-name="igrave" unicode="&#xec;" horiz-adv-x="295" 
d="M60 479l176 23v-502h-176v479zM247 543l-165 35q-9 2 -14.5 4t-10.5 7l-36 31q-10 8 -10 16q0 6 9 16l58 69q8 9 16 9q5 0 10 -4l180 -132z" />
    <glyph glyph-name="ij" unicode="&#x133;" horiz-adv-x="590" 
d="M60 479l176 23v-502h-176v479zM148 553q-55 0 -75.5 19.5t-20.5 74.5q0 56 20.5 76t75.5 20q54 0 74 -20t20 -76q0 -55 -19 -74.5t-75 -19.5zM372 -179q-28 0 -59.5 4.5t-57.5 10.5l8 109q37 0 57 5t27.5 19t7.5 39v471l176 23v-525q0 -80 -38.5 -118t-120.5 -38z
M443 553q-55 0 -75.5 19.5t-20.5 74.5q0 56 20.5 76t75.5 20q54 0 74 -20t20 -76q0 -55 -19 -74.5t-75 -19.5z" />
    <glyph glyph-name="imacron" unicode="&#x12b;" horiz-adv-x="295" 
d="M60 479l176 23v-502h-176v479zM56 572q-35 0 -43 13t-8 47v56h235q35 0 42.5 -11.5t7.5 -46.5v-58h-234z" />
    <glyph glyph-name="iogonek" unicode="&#x12f;" horiz-adv-x="295" 
d="M60 479l176 23v-502h-176v479zM148 553q-55 0 -75.5 19.5t-20.5 74.5q0 56 20.5 76t75.5 20q54 0 74 -20t20 -76q0 -55 -19 -74.5t-75 -19.5zM166 -177q-45 0 -70.5 25t-25.5 68q0 47 40.5 78t115.5 40l10 -34l-13 -3q-22 -3 -29 -10.5t-7 -25.5v-9q0 -18 6.5 -25
t23.5 -7h31l12 -74q-24 -12 -46.5 -17.5t-47.5 -5.5z" />
    <glyph glyph-name="itilde" unicode="&#x129;" horiz-adv-x="295" 
d="M60 479l176 23v-502h-176v479zM162 548q-12 0 -22.5 4t-22.5 13.5t-27 27.5l-78 -39l-39 65q57 41 87.5 61t46 27t27.5 7q13 0 23.5 -4t21.5 -13.5t27 -27.5l78 38l39 -65q-56 -39 -86.5 -59.5t-46 -27.5t-28.5 -7z" />
    <glyph glyph-name="j" unicode="j" horiz-adv-x="295" 
d="M77 -179q-28 0 -59.5 4.5t-57.5 10.5l8 109q37 0 57 5t27.5 19t7.5 39v471l176 23v-525q0 -80 -38.5 -118t-120.5 -38zM148 553q-55 0 -75.5 19.5t-20.5 74.5q0 56 20.5 76t75.5 20q54 0 74 -20t20 -76q0 -55 -19 -74.5t-75 -19.5z" />
    <glyph glyph-name="uni0237" unicode="&#x237;" horiz-adv-x="295" 
d="M77 -179q-28 0 -59.5 4.5t-57.5 10.5l8 109q37 0 57 5t27.5 19t7.5 39v471l176 23v-525q0 -80 -38.5 -118t-120.5 -38z" />
    <glyph glyph-name="jcircumflex" unicode="&#x135;" horiz-adv-x="295" 
d="M77 -179q-28 0 -59.5 4.5t-57.5 10.5l8 109q37 0 57 5t27.5 19t7.5 39v471l176 23v-525q0 -80 -38.5 -118t-120.5 -38zM57 542l-46 45l102 130q6 9 15 9h40q9 0 15 -9l102 -130l-46 -45l-91 70z" />
    <glyph glyph-name="k" unicode="k" horiz-adv-x="556" 
d="M280 213h-44v-213h-176v650l176 15v-345h43l80 180h186l-119 -237l124 -263h-184z" />
    <glyph glyph-name="uni0137" unicode="&#x137;" horiz-adv-x="556" 
d="M280 213h-44v-213h-176v650l176 15v-345h43l80 180h186l-119 -237l124 -263h-184zM298 -321l-67 20l24 102q-33 5 -46.5 20t-13.5 49q0 52 19 71t69 19q49 0 68 -19t19 -71q0 -27 -8 -51.5t-24 -60.5z" />
    <glyph glyph-name="kgreenlandic" unicode="&#x138;" horiz-adv-x="563" 
d="M288 200h-52v-200h-176v500h176v-193h50l80 193h186l-119 -250l124 -250h-184z" />
    <glyph glyph-name="l" unicode="l" horiz-adv-x="300" 
d="M234 126q14 -2 26 -3.5t23 -2.5l-9 -119q-27 -7 -52 -11t-48 -4q-59 0 -87.5 24.5t-28.5 76.5v563l176 15v-539z" />
    <glyph glyph-name="lacute" unicode="&#x13a;" horiz-adv-x="300" 
d="M234 126q14 -2 26 -3.5t23 -2.5l-9 -119q-27 -7 -52 -11t-48 -4q-59 0 -87.5 24.5t-28.5 76.5v563l176 15v-539zM75 685l-36 52l180 132q5 4 10 4q7 0 16 -10l58 -69q8 -10 8 -16q0 -7 -10 -16l-35 -30q-6 -5 -11 -7.5t-14 -4.5z" />
    <glyph glyph-name="lcaron" unicode="&#x13e;" horiz-adv-x="405" 
d="M234 126q14 -2 26 -3.5t23 -2.5l-9 -119q-27 -7 -52 -11t-48 -4q-59 0 -87.5 24.5t-28.5 76.5v563l176 15v-539zM368 419l-67 20l24 102q-32 5 -46 20t-14 49q0 52 19 71t69 19q49 0 68 -19t19 -71q0 -27 -8 -51.5t-24 -60.5z" />
    <glyph glyph-name="uni013C" unicode="&#x13c;" horiz-adv-x="300" 
d="M234 126q14 -2 26 -3.5t23 -2.5l-9 -119q-27 -7 -52 -11t-48 -4q-59 0 -87.5 24.5t-28.5 76.5v563l176 15v-539zM161 -321l-67 20l24 102q-33 5 -46.5 20t-13.5 49q0 52 19 71t69 19q49 0 68 -19t19 -71q0 -27 -8 -51.5t-24 -60.5z" />
    <glyph glyph-name="ldot" unicode="&#x140;" horiz-adv-x="460" 
d="M234 126q14 -2 26 -3.5t23 -2.5l-9 -119q-27 -7 -52 -11t-48 -4q-59 0 -87.5 24.5t-28.5 76.5v563l176 15v-539zM277 341q0 52 19 75t79 23t79 -23t19 -75t-19 -74t-79 -22t-79 22t-19 74z" />
    <glyph glyph-name="lslash" unicode="&#x142;" horiz-adv-x="300" 
d="M234 126q14 -2 26 -3.5t23 -2.5l-9 -119q-27 -7 -52 -11t-48 -4q-59 0 -87.5 24.5t-28.5 76.5v563l176 15v-539zM8 233l-13 37q-8 25 -8 40q0 21 24 29l271 90l13 -37q8 -25 8 -41q0 -20 -24 -28z" />
    <glyph glyph-name="m" unicode="m" horiz-adv-x="870" 
d="M60 0v500h87l44 -50q42 32 89 48t98 16q71 0 109.5 -28.5t38.5 -79.5v-406h-176v369h-64q-28 0 -39 -8t-11 -27v-334h-176zM350 0v500l131 -50q42 32 89 48t98 16q71 0 109.5 -28.5t38.5 -79.5v-406h-176v369h-64q-28 0 -39 -8t-11 -27v-334h-176z" />
    <glyph glyph-name="n" unicode="n" horiz-adv-x="590" 
d="M60 0v500h87l44 -50q43 32 92 48t105 16q71 0 109.5 -28.5t38.5 -79.5v-406h-176v369h-74q-28 0 -39 -8t-11 -27v-334h-176z" />
    <glyph glyph-name="nacute" unicode="&#x144;" horiz-adv-x="590" 
d="M60 0v500h87l44 -50q43 32 92 48t105 16q71 0 109.5 -28.5t38.5 -79.5v-406h-176v369h-74q-28 0 -39 -8t-11 -27v-334h-176zM234 545l-36 52l180 132q5 4 10 4q7 0 16 -10l58 -69q8 -10 8 -16q0 -7 -10 -16l-35 -30q-6 -5 -11 -7.5t-14 -4.5z" />
    <glyph glyph-name="ncaron" unicode="&#x148;" horiz-adv-x="590" 
d="M60 0v500h87l44 -50q43 32 92 48t105 16q71 0 109.5 -28.5t38.5 -79.5v-406h-176v369h-74q-28 0 -39 -8t-11 -27v-334h-176zM215 726l91 -71l91 71l46 -46l-102 -130q-6 -8 -15 -8h-40q-9 0 -15 8l-102 130z" />
    <glyph glyph-name="uni0146" unicode="&#x146;" horiz-adv-x="590" 
d="M60 0v500h87l44 -50q43 32 92 48t105 16q71 0 109.5 -28.5t38.5 -79.5v-406h-176v369h-74q-28 0 -39 -8t-11 -27v-334h-176zM311 -321l-67 20l24 102q-33 5 -46.5 20t-13.5 49q0 52 19 71t69 19q49 0 68 -19t19 -71q0 -27 -8 -51.5t-24 -60.5z" />
    <glyph glyph-name="eng" unicode="&#x14b;" horiz-adv-x="590" 
d="M378 -179q-28 0 -59.5 4.5t-58.5 10.5l9 88q37 0 56.5 5t27 19t7.5 39v58h176v-68q0 -80 -38.5 -118t-119.5 -38zM60 0v500h87l44 -50q43 32 92 48t105 16q71 0 109.5 -28.5t38.5 -79.5v-406h-176v369h-74q-28 0 -39 -8t-11 -27v-334h-176z" />
    <glyph glyph-name="ntilde" unicode="&#xf1;" horiz-adv-x="590" 
d="M60 0v500h87l44 -50q43 32 92 48t105 16q71 0 109.5 -28.5t38.5 -79.5v-406h-176v369h-74q-28 0 -39 -8t-11 -27v-334h-176zM320 548q-12 0 -22.5 4t-22.5 13.5t-27 27.5l-78 -39l-39 65q57 41 87.5 61t46 27t27.5 7q13 0 23.5 -4t21.5 -13.5t27 -27.5l78 38l39 -65
q-56 -39 -86.5 -59.5t-46 -27.5t-28.5 -7z" />
    <glyph glyph-name="o" unicode="o" horiz-adv-x="581" 
d="M291 -14q-68 0 -116 15t-78.5 46.5t-45 82t-14.5 120.5q0 71 14.5 121.5t45 82t78.5 46t116 14.5t116 -14.5t78.5 -46t44.5 -82t14 -121.5q0 -70 -14 -120.5t-44.5 -82t-78.5 -46.5t-116 -15zM226 120h89q24 0 32.5 5.5t8.5 21.5v233h-89q-24 0 -32.5 -5.5t-8.5 -21.5
v-233z" />
    <glyph glyph-name="oacute" unicode="&#xf3;" horiz-adv-x="581" 
d="M291 -14q-68 0 -116 15t-78.5 46.5t-45 82t-14.5 120.5q0 71 14.5 121.5t45 82t78.5 46t116 14.5t116 -14.5t78.5 -46t44.5 -82t14 -121.5q0 -70 -14 -120.5t-44.5 -82t-78.5 -46.5t-116 -15zM226 120h89q24 0 32.5 5.5t8.5 21.5v233h-89q-24 0 -32.5 -5.5t-8.5 -21.5
v-233zM219 545l-36 52l180 132q5 4 10 4q7 0 16 -10l58 -69q8 -10 8 -16q0 -7 -10 -16l-35 -30q-6 -5 -11 -7.5t-14 -4.5z" />
    <glyph glyph-name="obreve" unicode="&#x14f;" horiz-adv-x="581" 
d="M291 -14q-68 0 -116 15t-78.5 46.5t-45 82t-14.5 120.5q0 71 14.5 121.5t45 82t78.5 46t116 14.5t116 -14.5t78.5 -46t44.5 -82t14 -121.5q0 -70 -14 -120.5t-44.5 -82t-78.5 -46.5t-116 -15zM226 120h89q24 0 32.5 5.5t8.5 21.5v233h-89q-24 0 -32.5 -5.5t-8.5 -21.5
v-233zM291 554q-48 0 -88.5 32t-54.5 100l89 14q6 -22 21 -34t33 -12t33 12t21 34l89 -14q-15 -67 -55 -99.5t-88 -32.5z" />
    <glyph glyph-name="ocircumflex" unicode="&#xf4;" horiz-adv-x="581" 
d="M291 -14q-68 0 -116 15t-78.5 46.5t-45 82t-14.5 120.5q0 71 14.5 121.5t45 82t78.5 46t116 14.5t116 -14.5t78.5 -46t44.5 -82t14 -121.5q0 -70 -14 -120.5t-44.5 -82t-78.5 -46.5t-116 -15zM226 120h89q24 0 32.5 5.5t8.5 21.5v233h-89q-24 0 -32.5 -5.5t-8.5 -21.5
v-233zM200 542l-46 45l102 130q6 9 15 9h40q9 0 15 -9l102 -130l-46 -45l-91 70z" />
    <glyph glyph-name="odieresis" unicode="&#xf6;" horiz-adv-x="581" 
d="M291 -14q-68 0 -116 15t-78.5 46.5t-45 82t-14.5 120.5q0 71 14.5 121.5t45 82t78.5 46t116 14.5t116 -14.5t78.5 -46t44.5 -82t14 -121.5q0 -70 -14 -120.5t-44.5 -82t-78.5 -46.5t-116 -15zM226 120h89q24 0 32.5 5.5t8.5 21.5v233h-89q-24 0 -32.5 -5.5t-8.5 -21.5
v-233zM393 558q-48 0 -63 17t-15 58t15 59.5t63 18.5q46 0 61 -18.5t15 -59.5t-15 -58t-61 -17zM190 558q-48 0 -62.5 17t-14.5 58t14.5 59.5t62.5 18.5q46 0 61 -18.5t15 -59.5t-15 -58t-61 -17z" />
    <glyph glyph-name="ograve" unicode="&#xf2;" horiz-adv-x="581" 
d="M291 -14q-68 0 -116 15t-78.5 46.5t-45 82t-14.5 120.5q0 71 14.5 121.5t45 82t78.5 46t116 14.5t116 -14.5t78.5 -46t44.5 -82t14 -121.5q0 -70 -14 -120.5t-44.5 -82t-78.5 -46.5t-116 -15zM226 120h89q24 0 32.5 5.5t8.5 21.5v233h-89q-24 0 -32.5 -5.5t-8.5 -21.5
v-233zM390 543l-165 35q-9 2 -14.5 4t-10.5 7l-36 31q-10 8 -10 16q0 6 9 16l58 69q8 9 16 9q5 0 10 -4l180 -132z" />
    <glyph glyph-name="ohungarumlaut" unicode="&#x151;" horiz-adv-x="581" 
d="M291 -14q-68 0 -116 15t-78.5 46.5t-45 82t-14.5 120.5q0 71 14.5 121.5t45 82t78.5 46t116 14.5t116 -14.5t78.5 -46t44.5 -82t14 -121.5q0 -70 -14 -120.5t-44.5 -82t-78.5 -46.5t-116 -15zM226 120h89q24 0 32.5 5.5t8.5 21.5v233h-89q-24 0 -32.5 -5.5t-8.5 -21.5
v-233zM352 539l-35 53l138 132q8 9 14 10q3 0 6.5 -2.5t8.5 -7.5l59 -70q4 -3 5.5 -7.5t1.5 -8.5q0 -3 -2 -7t-6 -8l-38 -35q-4 -3 -10.5 -6.5t-20.5 -7.5zM100 539l-36 53l139 132q8 9 14 10q3 0 6.5 -2.5t8.5 -7.5l59 -70q3 -3 5 -7.5t2 -8.5q0 -3 -2 -7t-6 -8l-39 -35
q-3 -3 -9.5 -6.5t-20.5 -7.5z" />
    <glyph glyph-name="omacron" unicode="&#x14d;" horiz-adv-x="581" 
d="M291 -14q-68 0 -116 15t-78.5 46.5t-45 82t-14.5 120.5q0 71 14.5 121.5t45 82t78.5 46t116 14.5t116 -14.5t78.5 -46t44.5 -82t14 -121.5q0 -70 -14 -120.5t-44.5 -82t-78.5 -46.5t-116 -15zM226 120h89q24 0 32.5 5.5t8.5 21.5v233h-89q-24 0 -32.5 -5.5t-8.5 -21.5
v-233zM199 572q-35 0 -43 13t-8 47v56h235q35 0 42.5 -11.5t7.5 -46.5v-58h-234z" />
    <glyph glyph-name="oslash" unicode="&#xf8;" horiz-adv-x="581" 
d="M291 -14q-68 0 -116 15t-78.5 46.5t-45 82t-14.5 120.5q0 71 14.5 121.5t45 82t78.5 46t116 14.5t116 -14.5t78.5 -46t44.5 -82t14 -121.5q0 -70 -14 -120.5t-44.5 -82t-78.5 -46.5t-116 -15zM226 120h89q24 0 32.5 5.5t8.5 21.5v233h-89q-24 0 -32.5 -5.5t-8.5 -21.5
v-233zM178 -78q-7 -15 -16.5 -20t-26.5 -5h-46l315 680q7 15 16.5 20t26.5 5h46z" />
    <glyph glyph-name="oslashacute" unicode="&#x1ff;" horiz-adv-x="581" 
d="M291 -14q-68 0 -116 15t-78.5 46.5t-45 82t-14.5 120.5q0 71 14.5 121.5t45 82t78.5 46t116 14.5t116 -14.5t78.5 -46t44.5 -82t14 -121.5q0 -70 -14 -120.5t-44.5 -82t-78.5 -46.5t-116 -15zM226 120h89q24 0 32.5 5.5t8.5 21.5v233h-89q-24 0 -32.5 -5.5t-8.5 -21.5
v-233zM178 -78q-7 -15 -16.5 -20t-26.5 -5h-46l315 680q7 15 16.5 20t26.5 5h46zM219 545l-36 52l180 132q5 4 10 4q7 0 16 -10l58 -69q8 -10 8 -16q0 -7 -10 -16l-35 -30q-6 -5 -11 -7.5t-14 -4.5z" />
    <glyph glyph-name="otilde" unicode="&#xf5;" horiz-adv-x="581" 
d="M291 -14q-68 0 -116 15t-78.5 46.5t-45 82t-14.5 120.5q0 71 14.5 121.5t45 82t78.5 46t116 14.5t116 -14.5t78.5 -46t44.5 -82t14 -121.5q0 -70 -14 -120.5t-44.5 -82t-78.5 -46.5t-116 -15zM226 120h89q24 0 32.5 5.5t8.5 21.5v233h-89q-24 0 -32.5 -5.5t-8.5 -21.5
v-233zM305 548q-12 0 -22.5 4t-22.5 13.5t-27 27.5l-78 -39l-39 65q57 41 87.5 61t46 27t27.5 7q13 0 23.5 -4t21.5 -13.5t27 -27.5l78 38l39 -65q-56 -39 -86.5 -59.5t-46 -27.5t-28.5 -7z" />
    <glyph glyph-name="oe" unicode="&#x153;" horiz-adv-x="881" 
d="M291 -14q-68 0 -116 15t-78.5 46.5t-45 82t-14.5 120.5q0 71 14.5 121.5t45 82t78.5 46t116 14.5q63 0 108 -14.5t73 -46t41 -82t13 -121.5q0 -70 -13 -120.5t-41 -82t-73 -46.5t-108 -15zM226 120h89q24 0 32.5 5.5t8.5 21.5v233h-89q-24 0 -32.5 -5.5t-8.5 -21.5v-233z
M603 -14q-61 0 -104.5 15t-71.5 46.5t-41 81.5t-13 121q0 94 24 152t76 85t134 27q88 0 137.5 -15t69.5 -51t20 -99q0 -47 -14.5 -78.5t-47.5 -50.5t-89 -27t-139 -8h-30v92h89q41 0 56.5 9.5t15.5 36.5v61h-59q-41 0 -56.5 -9t-15.5 -34v-219q16 -3 35 -4.5t44 -1.5
q43 0 86 6.5t91 19.5l21 -123q-50 -16 -105.5 -24.5t-112.5 -8.5z" />
    <glyph glyph-name="p" unicode="p" horiz-adv-x="589" 
d="M345 -15q-57 0 -98 14.5t-66 46t-36.5 82t-11.5 122.5q0 71 11.5 121.5t36.5 82t66 46t98 14.5q56 0 95 -14.5t64 -46t36 -82t11 -121.5t-11 -121.5t-36 -82.5t-64.5 -46.5t-94.5 -14.5zM236 119h86q24 0 32.5 5.5t8.5 21.5v234h-87q-23 0 -31.5 -5.5t-8.5 -20.5v-235z
M60 -168v668h87l89 -127v-527z" />
    <glyph glyph-name="thorn" unicode="&#xfe;" horiz-adv-x="589" 
d="M345 -15q-57 0 -98 14.5t-66 46t-36.5 82t-11.5 122.5q0 71 11.5 121.5t36.5 82t66 46t98 14.5q56 0 95 -14.5t64 -46t36 -82t11 -121.5t-11 -121.5t-36 -82.5t-64.5 -46.5t-94.5 -14.5zM236 119h86q24 0 32.5 5.5t8.5 21.5v234h-87q-23 0 -31.5 -5.5t-8.5 -20.5v-235z
M60 -168v818l176 15v-819z" />
    <glyph glyph-name="q" unicode="q" horiz-adv-x="589" 
d="M244 -15q-56 0 -95 14.5t-64 46.5t-36.5 82.5t-11.5 121.5t11.5 121.5t36.5 82t64 46t95 14.5q58 0 98.5 -14.5t65.5 -46t36.5 -82t11.5 -121.5q0 -72 -11.5 -122.5t-36.5 -82t-65.5 -46t-98.5 -14.5zM226 119h86q24 0 32.5 5.5t8.5 21.5v234h-87q-22 0 -31 -5.5
t-9 -20.5v-235zM529 -154l-176 -14v541l89 127h87v-654z" />
    <glyph glyph-name="r" unicode="r" horiz-adv-x="361" 
d="M147 500l50 -69q33 33 69 53.5t77 30.5l11 -171q-17 -2 -40.5 -10t-44.5 -17.5t-33 -18.5v-298h-176v500h87z" />
    <glyph glyph-name="racute" unicode="&#x155;" horiz-adv-x="361" 
d="M147 500l50 -69q33 33 69 53.5t77 30.5l11 -171q-17 -2 -40.5 -10t-44.5 -17.5t-33 -18.5v-298h-176v500h87zM124 545l-36 52l180 132q5 4 10 4q7 0 16 -10l58 -69q8 -10 8 -16q0 -7 -10 -16l-35 -30q-6 -5 -11 -7.5t-14 -4.5z" />
    <glyph glyph-name="rcaron" unicode="&#x159;" horiz-adv-x="361" 
d="M147 500l50 -69q33 33 69 53.5t77 30.5l11 -171q-17 -2 -40.5 -10t-44.5 -17.5t-33 -18.5v-298h-176v500h87zM105 726l91 -71l91 71l46 -46l-102 -130q-6 -8 -15 -8h-40q-9 0 -15 8l-102 130z" />
    <glyph glyph-name="uni0157" unicode="&#x157;" horiz-adv-x="361" 
d="M147 500l50 -69q33 33 69 53.5t77 30.5l11 -171q-17 -2 -40.5 -10t-44.5 -17.5t-33 -18.5v-298h-176v500h87zM163 -321l-67 20l24 102q-33 5 -46.5 20t-13.5 49q0 52 19 71t69 19q49 0 68 -19t19 -71q0 -27 -8 -51.5t-24 -60.5z" />
    <glyph glyph-name="s" unicode="s" horiz-adv-x="511" 
d="M38 351q0 84 52 124t163 40q54 0 105.5 -5.5t98.5 -16.5l-21 -122q-25 7 -55 10t-64 3q-25 0 -50 -2.5t-41 -6.5v-56q74 -8 123 -20.5t78 -32t42 -47t13 -67.5q0 -58 -25.5 -95t-78.5 -54.5t-138 -17.5q-55 0 -110.5 8.5t-99.5 24.5l23 128q72 -30 161 -30q17 0 36 2
t43 7v58q-78 9 -127.5 20.5t-77.5 30t-39 46.5t-11 71z" />
    <glyph glyph-name="sacute" unicode="&#x15b;" horiz-adv-x="511" 
d="M38 351q0 84 52 124t163 40q54 0 105.5 -5.5t98.5 -16.5l-21 -122q-25 7 -55 10t-64 3q-25 0 -50 -2.5t-41 -6.5v-56q74 -8 123 -20.5t78 -32t42 -47t13 -67.5q0 -58 -25.5 -95t-78.5 -54.5t-138 -17.5q-55 0 -110.5 8.5t-99.5 24.5l23 128q72 -30 161 -30q17 0 36 2
t43 7v58q-78 9 -127.5 20.5t-77.5 30t-39 46.5t-11 71zM182 545l-36 52l180 132q5 4 10 4q7 0 16 -10l58 -69q8 -10 8 -16q0 -7 -10 -16l-35 -30q-6 -5 -11 -7.5t-14 -4.5z" />
    <glyph glyph-name="scaron" unicode="&#x161;" horiz-adv-x="511" 
d="M38 351q0 84 52 124t163 40q54 0 105.5 -5.5t98.5 -16.5l-21 -122q-25 7 -55 10t-64 3q-25 0 -50 -2.5t-41 -6.5v-56q74 -8 123 -20.5t78 -32t42 -47t13 -67.5q0 -58 -25.5 -95t-78.5 -54.5t-138 -17.5q-55 0 -110.5 8.5t-99.5 24.5l23 128q72 -30 161 -30q17 0 36 2
t43 7v58q-78 9 -127.5 20.5t-77.5 30t-39 46.5t-11 71zM163 726l91 -71l91 71l46 -46l-102 -130q-6 -8 -15 -8h-40q-9 0 -15 8l-102 130z" />
    <glyph glyph-name="scedilla" unicode="&#x15f;" horiz-adv-x="511" 
d="M38 351q0 84 52 124t163 40q54 0 105.5 -5.5t98.5 -16.5l-21 -122q-25 7 -55 10t-64 3q-25 0 -50 -2.5t-41 -6.5v-56q74 -8 123 -20.5t78 -32t42 -47t13 -67.5q0 -58 -25.5 -95t-78.5 -54.5t-138 -17.5q-55 0 -110.5 8.5t-99.5 24.5l23 128q72 -30 161 -30q17 0 36 2
t43 7v58q-78 9 -127.5 20.5t-77.5 30t-39 46.5t-11 71zM230 -177q-51 0 -96 18l10 79h26q27 0 35 7t8 32v62h51q33 -13 53.5 -42t20.5 -62q0 -43 -29.5 -68.5t-78.5 -25.5z" />
    </font>
</defs>
</svg>
